ML
     
  Уважаемый Гость!
Вы можете поддержать проект и зарегистрироваться у наших партнеров - онлайн-стратегия MyLands. При регистрации в игре Вы получите код, который сможете активировать после регистрации на pirat.ca и получить 1000 дублонов.

Ваш код:
b70663c760e7cd2521b8e123786cdd788200e3bd
 
     

Дачники / МХАТ имени М.Горького (Мария Муат, Владимир Салюк) [1979 г., мелодрама, DVD5, PAL] + Original (Rus)

Ответить на тему
 
Автор
Сообщение

Пост 11-Май-2014 00:06

[Q] 

marsel1620

Шкипер

-Дачники / МХАТ имени М.Горького-- Страна: СССР
Жанр: мелодрама
Год выпуска: 1979 г.
Продолжительность: 02:47:00
Перевод: Не требуется
Оригинальный аудиопоток: русский
Cубтитры: отсутствуют
Режиссер: Мария Муат, Владимир Салюк-В ролях: Леонид Губанов, Светлана Коркошко, Маргарита Юрьева, Борис Щербаков, Николай Пеньков (II), Любовь Стриженова, Анатолий Семёнов, Елена Королёва, Александр Калягин, Александр Дик, Ия Саввина, Любовь Мартынова, Владлен Давыдов, Всеволод Абдулов, Александр Серский, Юрий Пузырёв, Николай Пузырев, Людмила Кудрявцева.-Описание: По одноименной пьесе М.Горького в постановке Московского Художественного академического театра Союза ССР имени М.Горького. Блистательная постановка самой "чеховской" пьесы М.Горького украшена игрой целого созвездия актеров театра и кино. Группа людей - адвокатов, инженеров, врачей и их родственников - проводит свой досуг на даче: ищут коротких романов и серьезной любви, жалуются на серость жизни и на несчастливые браки, беседуют об общественном благе...-Качество видео: DVD5
Контейнер: DVD Video
Видео кодек: MPEG2
Аудио кодек: AC3
Видео: PAL 4:3 (720x576) VBR; частота кадров: 25,000 кадров/сек; битрейт: 3727 Кбит/сек.
Формат DVD: PAL
Аудио: AC3, 2/0 ch, 192Kbps, частота: 48,0 КГц.
Общее
Полное имя : D:\Films\Dachniki\Disk1_spektakl'\VIDEO_TS.BUP
Формат : DVD Video
Профиль формата : Menu
Размер файла : 16,0 Кбайт
Режим общего битрейта : Переменный
Видео
Идентификатор : 224 (0xE0)
Формат : MPEG Video
Версия формата : Version 2
Вид битрейта : Переменный
Ширина : 720 пикселей
Высота : 576 пикселей
Соотношение сторон : 4:3
Частота кадров : 25,000 кадров/сек
Стандарт вещания : PAL
Метод сжатия : С потерями
Текст
Формат : RLE
Формат/Информация : Run-length encoding
Битовая глубина : 2 бит
Общее
Полное имя : D:\Films\Dachniki\Disk1_spektakl'\VIDEO_TS.IFO
Формат : DVD Video
Профиль формата : Menu
Размер файла : 16,0 Кбайт
Режим общего битрейта : Переменный
Видео
Идентификатор : 224 (0xE0)
Формат : MPEG Video
Версия формата : Version 2
Вид битрейта : Переменный
Ширина : 720 пикселей
Высота : 576 пикселей
Соотношение сторон : 4:3
Частота кадров : 25,000 кадров/сек
Стандарт вещания : PAL
Метод сжатия : С потерями
Текст
Формат : RLE
Формат/Информация : Run-length encoding
Битовая глубина : 2 бит
Общее
Полное имя : D:\Films\Dachniki\Disk1_spektakl'\VIDEO_TS.VOB
Формат : MPEG-PS
Размер файла : 154 Кбайт
Продолжительность : 520 мс.
Общий поток : 2426 Кбит/сек
Видео
Идентификатор : 224 (0xE0)
Формат : MPEG Video
Версия формата : Version 2
Профиль формата : [email protected]
Параметр BVOP формата : Да
Параметр матрицы формата : Выборочная
Продолжительность : 520 мс.
Максимальный битрейт : 2000 Кбит/сек
Ширина : 720 пикселей
Высота : 576 пикселей
Соотношение сторон : 4:3
Частота кадров : 25,000 кадров/сек
Стандарт вещания : PAL
Цветовое пространство : YUV
Субдискретизация насыщенности : 4:2:0
Битовая глубина : 8 бит
Тип развёртки : Чересстрочная
Порядок развёртки : Верхнее поле первое
Метод сжатия : С потерями
Временной код первого кадра : 00:00:00:00
Оригинал временного кода : Group of pictures header
Текст
Идентификатор : 189 (0xBD)-32 (0x20)
Формат : RLE
Формат/Информация : Run-length encoding
Режим смешивания : DVD-Video
Задержка видео : -80 мс.
Меню
Общее
Полное имя : D:\Films\Dachniki\Disk1_spektakl'\VTS_01_0.BUP
Формат : DVD Video
Профиль формата : Program
Размер файла : 76,0 Кбайт
Продолжительность : 12 с.
Режим общего битрейта : Переменный
Общий поток : 48,0 Кбит/сек
Видео
Идентификатор : 224 (0xE0)
Формат : MPEG Video
Версия формата : Version 2
Продолжительность : 12 с.
Вид битрейта : Переменный
Ширина : 720 пикселей
Высота : 576 пикселей
Соотношение сторон : 4:3
Частота кадров : 25,000 кадров/сек
Стандарт вещания : PAL
Метод сжатия : С потерями
Аудио #1
Идентификатор : 128 (0x80)
Формат : AC-3
Формат/Информация : Audio Coding 3
Продолжительность : 12 с.
Каналы : 2 канала
Частота : 48,0 КГц
Метод сжатия : С потерями
Аудио #2
Формат : AC-3
Формат/Информация : Audio Coding 3
Продолжительность : 12 с.
Каналы : 6 каналов
Частота : 48,0 КГц
Метод сжатия : С потерями
Язык : English
Аудио #3
Формат : AC-3
Формат/Информация : Audio Coding 3
Продолжительность : 12 с.
Каналы : 6 каналов
Частота : 48,0 КГц
Метод сжатия : С потерями
Язык : English
Аудио #4
Формат : AC-3
Формат/Информация : Audio Coding 3
Продолжительность : 12 с.
Каналы : 6 каналов
Частота : 48,0 КГц
Метод сжатия : С потерями
Язык : English
Аудио #5
Формат : AC-3
Формат/Информация : Audio Coding 3
Продолжительность : 12 с.
Каналы : 6 каналов
Частота : 48,0 КГц
Метод сжатия : С потерями
Язык : English
Аудио #6
Формат : AC-3
Формат/Информация : Audio Coding 3
Продолжительность : 12 с.
Каналы : 6 каналов
Частота : 48,0 КГц
Метод сжатия : С потерями
Язык : English
Аудио #7
Формат : AC-3
Формат/Информация : Audio Coding 3
Продолжительность : 12 с.
Каналы : 6 каналов
Частота : 48,0 КГц
Метод сжатия : С потерями
Язык : English
Аудио #8
Формат : AC-3
Формат/Информация : Audio Coding 3
Продолжительность : 12 с.
Каналы : 6 каналов
Частота : 48,0 КГц
Метод сжатия : С потерями
Язык : English
Текст #1
Формат : RLE
Формат/Информация : Run-length encoding
Битовая глубина : 2 бит
Текст #2
Формат : RLE
Формат/Информация : Run-length encoding
Битовая глубина : 2 бит
Текст #3
Формат : RLE
Формат/Информация : Run-length encoding
Битовая глубина : 2 бит
Текст #4
Формат : RLE
Формат/Информация : Run-length encoding
Битовая глубина : 2 бит
Текст #5
Формат : RLE
Формат/Информация : Run-length encoding
Битовая глубина : 2 бит
Текст #6
Формат : RLE
Формат/Информация : Run-length encoding
Битовая глубина : 2 бит
Текст #7
Формат : RLE
Формат/Информация : Run-length encoding
Битовая глубина : 2 бит
Текст #8
Формат : RLE
Формат/Информация : Run-length encoding
Битовая глубина : 2 бит
Текст #9
Формат : RLE
Формат/Информация : Run-length encoding
Битовая глубина : 2 бит
Текст #10
Формат : RLE
Формат/Информация : Run-length encoding
Битовая глубина : 2 бит
Текст #11
Формат : RLE
Формат/Информация : Run-length encoding
Битовая глубина : 2 бит
Текст #12
Формат : RLE
Формат/Информация : Run-length encoding
Битовая глубина : 2 бит
Текст #13
Формат : RLE
Формат/Информация : Run-length encoding
Битовая глубина : 2 бит
Текст #14
Формат : RLE
Формат/Информация : Run-length encoding
Битовая глубина : 2 бит
Текст #15
Формат : RLE
Формат/Информация : Run-length encoding
Битовая глубина : 2 бит
Текст #16
Формат : RLE
Формат/Информация : Run-length encoding
Битовая глубина : 2 бит
Текст #17
Формат : RLE
Формат/Информация : Run-length encoding
Битовая глубина : 2 бит
Текст #18
Формат : RLE
Формат/Информация : Run-length encoding
Битовая глубина : 2 бит
Текст #19
Формат : RLE
Формат/Информация : Run-length encoding
Битовая глубина : 2 бит
Текст #20
Формат : RLE
Формат/Информация : Run-length encoding
Битовая глубина : 2 бит
Текст #21
Формат : RLE
Формат/Информация : Run-length encoding
Битовая глубина : 2 бит
Текст #22
Формат : RLE
Формат/Информация : Run-length encoding
Битовая глубина : 2 бит
Текст #23
Формат : RLE
Формат/Информация : Run-length encoding
Битовая глубина : 2 бит
Текст #24
Формат : RLE
Формат/Информация : Run-length encoding
Битовая глубина : 2 бит
Текст #25
Формат : RLE
Формат/Информация : Run-length encoding
Битовая глубина : 2 бит
Текст #26
Формат : RLE
Формат/Информация : Run-length encoding
Битовая глубина : 2 бит
Текст #27
Формат : RLE
Формат/Информация : Run-length encoding
Битовая глубина : 2 бит
Текст #28
Формат : RLE
Формат/Информация : Run-length encoding
Битовая глубина : 2 бит
Текст #29
Формат : RLE
Формат/Информация : Run-length encoding
Битовая глубина : 2 бит
Текст #30
Формат : RLE
Формат/Информация : Run-length encoding
Битовая глубина : 2 бит
Текст #31
Формат : RLE
Формат/Информация : Run-length encoding
Битовая глубина : 2 бит
Текст #32
Формат : RLE
Формат/Информация : Run-length encoding
Битовая глубина : 2 бит
Меню
Продолжительность : 12 с.
00:00:00.000 : Chapter 1
List (Audio) : 0
Общее
Полное имя : D:\Films\Dachniki\Disk1_spektakl'\VTS_01_0.IFO
Формат : DVD Video
Профиль формата : Program
Размер файла : 76,0 Кбайт
Продолжительность : 12 с.
Режим общего битрейта : Переменный
Общий поток : 48,0 Кбит/сек
Видео
Идентификатор : 224 (0xE0)
Формат : MPEG Video
Версия формата : Version 2
Продолжительность : 12 с.
Вид битрейта : Переменный
Ширина : 720 пикселей
Высота : 576 пикселей
Соотношение сторон : 4:3
Частота кадров : 25,000 кадров/сек
Стандарт вещания : PAL
Метод сжатия : С потерями
Аудио #1
Идентификатор : 128 (0x80)
Формат : AC-3
Формат/Информация : Audio Coding 3
Продолжительность : 12 с.
Каналы : 2 канала
Частота : 48,0 КГц
Метод сжатия : С потерями
Аудио #2
Формат : AC-3
Формат/Информация : Audio Coding 3
Продолжительность : 12 с.
Каналы : 6 каналов
Частота : 48,0 КГц
Метод сжатия : С потерями
Язык : English
Аудио #3
Формат : AC-3
Формат/Информация : Audio Coding 3
Продолжительность : 12 с.
Каналы : 6 каналов
Частота : 48,0 КГц
Метод сжатия : С потерями
Язык : English
Аудио #4
Формат : AC-3
Формат/Информация : Audio Coding 3
Продолжительность : 12 с.
Каналы : 6 каналов
Частота : 48,0 КГц
Метод сжатия : С потерями
Язык : English
Аудио #5
Формат : AC-3
Формат/Информация : Audio Coding 3
Продолжительность : 12 с.
Каналы : 6 каналов
Частота : 48,0 КГц
Метод сжатия : С потерями
Язык : English
Аудио #6
Формат : AC-3
Формат/Информация : Audio Coding 3
Продолжительность : 12 с.
Каналы : 6 каналов
Частота : 48,0 КГц
Метод сжатия : С потерями
Язык : English
Аудио #7
Формат : AC-3
Формат/Информация : Audio Coding 3
Продолжительность : 12 с.
Каналы : 6 каналов
Частота : 48,0 КГц
Метод сжатия : С потерями
Язык : English
Аудио #8
Формат : AC-3
Формат/Информация : Audio Coding 3
Продолжительность : 12 с.
Каналы : 6 каналов
Частота : 48,0 КГц
Метод сжатия : С потерями
Язык : English
Текст #1
Формат : RLE
Формат/Информация : Run-length encoding
Битовая глубина : 2 бит
Текст #2
Формат : RLE
Формат/Информация : Run-length encoding
Битовая глубина : 2 бит
Текст #3
Формат : RLE
Формат/Информация : Run-length encoding
Битовая глубина : 2 бит
Текст #4
Формат : RLE
Формат/Информация : Run-length encoding
Битовая глубина : 2 бит
Текст #5
Формат : RLE
Формат/Информация : Run-length encoding
Битовая глубина : 2 бит
Текст #6
Формат : RLE
Формат/Информация : Run-length encoding
Битовая глубина : 2 бит
Текст #7
Формат : RLE
Формат/Информация : Run-length encoding
Битовая глубина : 2 бит
Текст #8
Формат : RLE
Формат/Информация : Run-length encoding
Битовая глубина : 2 бит
Текст #9
Формат : RLE
Формат/Информация : Run-length encoding
Битовая глубина : 2 бит
Текст #10
Формат : RLE
Формат/Информация : Run-length encoding
Битовая глубина : 2 бит
Текст #11
Формат : RLE
Формат/Информация : Run-length encoding
Битовая глубина : 2 бит
Текст #12
Формат : RLE
Формат/Информация : Run-length encoding
Битовая глубина : 2 бит
Текст #13
Формат : RLE
Формат/Информация : Run-length encoding
Битовая глубина : 2 бит
Текст #14
Формат : RLE
Формат/Информация : Run-length encoding
Битовая глубина : 2 бит
Текст #15
Формат : RLE
Формат/Информация : Run-length encoding
Битовая глубина : 2 бит
Текст #16
Формат : RLE
Формат/Информация : Run-length encoding
Битовая глубина : 2 бит
Текст #17
Формат : RLE
Формат/Информация : Run-length encoding
Битовая глубина : 2 бит
Текст #18
Формат : RLE
Формат/Информация : Run-length encoding
Битовая глубина : 2 бит
Текст #19
Формат : RLE
Формат/Информация : Run-length encoding
Битовая глубина : 2 бит
Текст #20
Формат : RLE
Формат/Информация : Run-length encoding
Битовая глубина : 2 бит
Текст #21
Формат : RLE
Формат/Информация : Run-length encoding
Битовая глубина : 2 бит
Текст #22
Формат : RLE
Формат/Информация : Run-length encoding
Битовая глубина : 2 бит
Текст #23
Формат : RLE
Формат/Информация : Run-length encoding
Битовая глубина : 2 бит
Текст #24
Формат : RLE
Формат/Информация : Run-length encoding
Битовая глубина : 2 бит
Текст #25
Формат : RLE
Формат/Информация : Run-length encoding
Битовая глубина : 2 бит
Текст #26
Формат : RLE
Формат/Информация : Run-length encoding
Битовая глубина : 2 бит
Текст #27
Формат : RLE
Формат/Информация : Run-length encoding
Битовая глубина : 2 бит
Текст #28
Формат : RLE
Формат/Информация : Run-length encoding
Битовая глубина : 2 бит
Текст #29
Формат : RLE
Формат/Информация : Run-length encoding
Битовая глубина : 2 бит
Текст #30
Формат : RLE
Формат/Информация : Run-length encoding
Битовая глубина : 2 бит
Текст #31
Формат : RLE
Формат/Информация : Run-length encoding
Битовая глубина : 2 бит
Текст #32
Формат : RLE
Формат/Информация : Run-length encoding
Битовая глубина : 2 бит
Меню
Продолжительность : 12 с.
00:00:00.000 : Chapter 1
List (Audio) : 0
Общее
Полное имя : D:\Films\Dachniki\Disk1_spektakl'\VTS_01_0.VOB
Формат : MPEG-PS
Размер файла : 48,4 Мбайт
Продолжительность : 40 мс.
Режим общего битрейта : Переменный
Общий поток : 10,1 Гбит/сек
Видео
Идентификатор : 224 (0xE0)
Формат : MPEG Video
Версия формата : Version 2
Профиль формата : [email protected]
Параметр BVOP формата : Да
Параметр матрицы формата : Выборочная
Параметр GOP формата : Variable
Продолжительность : 40 мс.
Вид битрейта : Переменный
Максимальный битрейт : 8000 Кбит/сек
Ширина : 720 пикселей
Высота : 576 пикселей
Соотношение сторон : 4:3
Частота кадров : 25,000 кадров/сек
Стандарт вещания : PAL
Цветовое пространство : YUV
Субдискретизация насыщенности : 4:2:0
Битовая глубина : 8 бит
Метод сжатия : С потерями
Основные цвета : BT.601 PAL
Характеристики трансфера : BT.470 System B, BT.470 System G
Коэффициенты матрицы : BT.601
Аудио
Идентификатор : 189 (0xBD)-128 (0x80)
Формат : AC-3
Формат/Информация : Audio Coding 3
Расширение режима : CM (complete main)
Параметр Endianness формата : Big
Режим смешивания : DVD-Video
Продолжительность : 40 мс.
Вид битрейта : Постоянный
Битрейт : 192 Кбит/сек
Каналы : 2 канала
Расположение каналов : Front: L R
Частота : 48,0 КГц
Битовая глубина : 16 бит
Метод сжатия : С потерями
Размер потока : 960 байт (0%)
Текст
Идентификатор : 189 (0xBD)-32 (0x20)
Формат : RLE
Формат/Информация : Run-length encoding
Режим смешивания : DVD-Video
Меню
Общее
Полное имя : D:\Films\Dachniki\Disk1_spektakl'\VTS_01_1.VOB
Формат : MPEG-PS
Размер файла : 10,4 Мбайт
Продолжительность : 12 с.
Режим общего битрейта : Переменный
Общий поток : 6755 Кбит/сек
Видео
Идентификатор : 224 (0xE0)
Формат : MPEG Video
Версия формата : Version 2
Профиль формата : [email protected]
Параметр BVOP формата : Да
Параметр матрицы формата : Выборочная
Параметр GOP формата : Variable
Продолжительность : 12 с.
Вид битрейта : Переменный
Битрейт : 6364 Кбит/сек
Максимальный битрейт : 9000 Кбит/сек
Ширина : 720 пикселей
Высота : 576 пикселей
Соотношение сторон : 4:3
Частота кадров : 25,000 кадров/сек
Стандарт вещания : PAL
Цветовое пространство : YUV
Субдискретизация насыщенности : 4:2:0
Битовая глубина : 8 бит
Тип развёртки : Чересстрочная
Порядок развёртки : Верхнее поле первое
Метод сжатия : С потерями
Бит/(Пиксели*Кадры) : 0.614
Временной код первого кадра : 00:00:00:00
Оригинал временного кода : Group of pictures header
Размер потока : 9,83 Мбайт (94%)
Аудио
Идентификатор : 189 (0xBD)-128 (0x80)
Формат : AC-3
Формат/Информация : Audio Coding 3
Расширение режима : CM (complete main)
Параметр Endianness формата : Big
Режим смешивания : DVD-Video
Продолжительность : 12 с.
Вид битрейта : Постоянный
Битрейт : 256 Кбит/сек
Каналы : 2 канала
Расположение каналов : Front: L R
Частота : 48,0 КГц
Битовая глубина : 16 бит
Метод сжатия : С потерями
Размер потока : 404 Кбайт (4%)
Меню
Общее
Полное имя : D:\Films\Dachniki\Disk1_spektakl'\VTS_02_0.BUP
Формат : DVD Video
Профиль формата : Program
Размер файла : 18,0 Кбайт
Продолжительность : 26 с.
Режим общего битрейта : Переменный
Общий поток : 5552 бит/сек
Видео
Идентификатор : 224 (0xE0)
Формат : MPEG Video
Версия формата : Version 2
Продолжительность : 26 с.
Вид битрейта : Переменный
Ширина : 720 пикселей
Высота : 576 пикселей
Соотношение сторон : 4:3
Частота кадров : 25,000 кадров/сек
Стандарт вещания : PAL
Метод сжатия : С потерями
Аудио
Идентификатор : 128 (0x80)
Формат : AC-3
Формат/Информация : Audio Coding 3
Продолжительность : 26 с.
Каналы : 2 канала
Частота : 48,0 КГц
Метод сжатия : С потерями
Меню
Продолжительность : 26 с.
00:00:00.000 : Chapter 1
List (Audio) : 0
Общее
Полное имя : D:\Films\Dachniki\Disk1_spektakl'\VTS_02_0.IFO
Формат : DVD Video
Профиль формата : Program
Размер файла : 18,0 Кбайт
Продолжительность : 26 с.
Режим общего битрейта : Переменный
Общий поток : 5552 бит/сек
Видео
Идентификатор : 224 (0xE0)
Формат : MPEG Video
Версия формата : Version 2
Продолжительность : 26 с.
Вид битрейта : Переменный
Ширина : 720 пикселей
Высота : 576 пикселей
Соотношение сторон : 4:3
Частота кадров : 25,000 кадров/сек
Стандарт вещания : PAL
Метод сжатия : С потерями
Аудио
Идентификатор : 128 (0x80)
Формат : AC-3
Формат/Информация : Audio Coding 3
Продолжительность : 26 с.
Каналы : 2 канала
Частота : 48,0 КГц
Метод сжатия : С потерями
Меню
Продолжительность : 26 с.
00:00:00.000 : Chapter 1
List (Audio) : 0
Общее
Полное имя : D:\Films\Dachniki\Disk1_spektakl'\VTS_02_0.VOB
Формат : MPEG-PS
Размер файла : 154 Кбайт
Продолжительность : 520 мс.
Общий поток : 2426 Кбит/сек
Видео
Идентификатор : 224 (0xE0)
Формат : MPEG Video
Версия формата : Version 2
Профиль формата : [email protected]
Параметр BVOP формата : Да
Параметр матрицы формата : Выборочная
Продолжительность : 520 мс.
Максимальный битрейт : 2000 Кбит/сек
Ширина : 720 пикселей
Высота : 576 пикселей
Соотношение сторон : 4:3
Частота кадров : 25,000 кадров/сек
Стандарт вещания : PAL
Цветовое пространство : YUV
Субдискретизация насыщенности : 4:2:0
Битовая глубина : 8 бит
Тип развёртки : Чересстрочная
Порядок развёртки : Верхнее поле первое
Метод сжатия : С потерями
Временной код первого кадра : 00:00:00:00
Оригинал временного кода : Group of pictures header
Текст
Идентификатор : 189 (0xBD)-32 (0x20)
Формат : RLE
Формат/Информация : Run-length encoding
Режим смешивания : DVD-Video
Задержка видео : -80 мс.
Меню
Общее
Полное имя : D:\Films\Dachniki\Disk1_spektakl'\VTS_02_1.VOB
Формат : MPEG-PS
Размер файла : 18,8 Мбайт
Продолжительность : 26 с.
Режим общего битрейта : Переменный
Общий поток : 5937 Кбит/сек
Видео
Идентификатор : 224 (0xE0)
Формат : MPEG Video
Версия формата : Version 2
Профиль формата : [email protected]
Параметр BVOP формата : Да
Параметр матрицы формата : Выборочная
Параметр GOP формата : Variable
Продолжительность : 26 с.
Вид битрейта : Переменный
Битрейт : 5627 Кбит/сек
Максимальный битрейт : 9800 Кбит/сек
Ширина : 720 пикселей
Высота : 576 пикселей
Соотношение сторон : 4:3
Частота кадров : 25,000 кадров/сек
Стандарт вещания : PAL
Цветовое пространство : YUV
Субдискретизация насыщенности : 4:2:0
Битовая глубина : 8 бит
Тип развёртки : Чересстрочная
Порядок развёртки : Верхнее поле первое
Метод сжатия : С потерями
Бит/(Пиксели*Кадры) : 0.543
Временной код первого кадра : 00:00:00:00
Оригинал временного кода : Group of pictures header
Размер потока : 17,8 Мбайт (95%)
Аудио
Идентификатор : 189 (0xBD)-128 (0x80)
Формат : AC-3
Формат/Информация : Audio Coding 3
Расширение режима : CM (complete main)
Параметр Endianness формата : Big
Режим смешивания : DVD-Video
Продолжительность : 26 с.
Вид битрейта : Постоянный
Битрейт : 192 Кбит/сек
Каналы : 2 канала
Расположение каналов : Front: L R
Частота : 48,0 КГц
Битовая глубина : 16 бит
Метод сжатия : С потерями
Размер потока : 622 Кбайт (3%)
Меню
Общее
Полное имя : D:\Films\Dachniki\Disk1_spektakl'\VTS_03_0.BUP
Формат : DVD Video
Профиль формата : Program
Размер файла : 50,0 Кбайт
Продолжительность : 1 ч. 13 м.
Режим общего битрейта : Переменный
Общий поток : 93 бит/сек
Видео
Идентификатор : 224 (0xE0)
Формат : MPEG Video
Версия формата : Version 2
Продолжительность : 1 ч. 13 м.
Вид битрейта : Переменный
Ширина : 720 пикселей
Высота : 576 пикселей
Соотношение сторон : 4:3
Частота кадров : 25,000 кадров/сек
Стандарт вещания : PAL
Метод сжатия : С потерями
Аудио
Идентификатор : 128 (0x80)
Формат : AC-3
Формат/Информация : Audio Coding 3
Продолжительность : 1 ч. 13 м.
Каналы : 2 канала
Частота : 48,0 КГц
Метод сжатия : С потерями
Язык : Russian
Меню
Продолжительность : 1 ч. 13 м.
00:00:00.000 : Chapter 1
00:17:29.080 : Chapter 2
00:24:53.160 : Chapter 3
00:38:56.080 : Chapter 4
00:47:29.040 : Chapter 5
01:00:52.960 : Chapter 6
01:13:38.560 : Chapter 7
List (Audio) : 0
Общее
Полное имя : D:\Films\Dachniki\Disk1_spektakl'\VTS_03_0.IFO
Формат : DVD Video
Профиль формата : Program
Размер файла : 50,0 Кбайт
Продолжительность : 1 ч. 13 м.
Режим общего битрейта : Переменный
Общий поток : 93 бит/сек
Видео
Идентификатор : 224 (0xE0)
Формат : MPEG Video
Версия формата : Version 2
Продолжительность : 1 ч. 13 м.
Вид битрейта : Переменный
Ширина : 720 пикселей
Высота : 576 пикселей
Соотношение сторон : 4:3
Частота кадров : 25,000 кадров/сек
Стандарт вещания : PAL
Метод сжатия : С потерями
Аудио
Идентификатор : 128 (0x80)
Формат : AC-3
Формат/Информация : Audio Coding 3
Продолжительность : 1 ч. 13 м.
Каналы : 2 канала
Частота : 48,0 КГц
Метод сжатия : С потерями
Язык : Russian
Меню
Продолжительность : 1 ч. 13 м.
00:00:00.000 : Chapter 1
00:17:29.080 : Chapter 2
00:24:53.160 : Chapter 3
00:38:56.080 : Chapter 4
00:47:29.040 : Chapter 5
01:00:52.960 : Chapter 6
01:13:38.560 : Chapter 7
List (Audio) : 0
Общее
Полное имя : D:\Films\Dachniki\Disk1_spektakl'\VTS_03_0.VOB
Формат : MPEG-PS
Размер файла : 154 Кбайт
Продолжительность : 520 мс.
Общий поток : 2426 Кбит/сек
Видео
Идентификатор : 224 (0xE0)
Формат : MPEG Video
Версия формата : Version 2
Профиль формата : [email protected]
Параметр BVOP формата : Да
Параметр матрицы формата : Выборочная
Продолжительность : 520 мс.
Максимальный битрейт : 2000 Кбит/сек
Ширина : 720 пикселей
Высота : 576 пикселей
Соотношение сторон : 4:3
Частота кадров : 25,000 кадров/сек
Стандарт вещания : PAL
Цветовое пространство : YUV
Субдискретизация насыщенности : 4:2:0
Битовая глубина : 8 бит
Тип развёртки : Чересстрочная
Порядок развёртки : Верхнее поле первое
Метод сжатия : С потерями
Временной код первого кадра : 00:00:00:00
Оригинал временного кода : Group of pictures header
Текст
Идентификатор : 189 (0xBD)-32 (0x20)
Формат : RLE
Формат/Информация : Run-length encoding
Режим смешивания : DVD-Video
Задержка видео : -80 мс.
Меню
Общее
Полное имя : D:\Films\Dachniki\Disk1_spektakl'\VTS_03_1.VOB
Формат : MPEG-PS
Размер файла : 1024 Мбайт
Продолжительность : 40 м.
Режим общего битрейта : Переменный
Общий поток : 3570 Кбит/сек
Видео
Идентификатор : 224 (0xE0)
Формат : MPEG Video
Версия формата : Version 2
Профиль формата : [email protected]
Параметр BVOP формата : Да
Параметр матрицы формата : Выборочная
Параметр GOP формата : M=3, N=15
Продолжительность : 40 м.
Вид битрейта : Переменный
Битрейт : 3307 Кбит/сек
Максимальный битрейт : 6500 Кбит/сек
Ширина : 720 пикселей
Высота : 576 пикселей
Соотношение сторон : 4:3
Частота кадров : 25,000 кадров/сек
Стандарт вещания : PAL
Цветовое пространство : YUV
Субдискретизация насыщенности : 4:2:0
Битовая глубина : 8 бит
Тип развёртки : Чересстрочная
Порядок развёртки : Верхнее поле первое
Метод сжатия : С потерями
Бит/(Пиксели*Кадры) : 0.319
Временной код первого кадра : 00:00:00:00
Оригинал временного кода : Group of pictures header
Размер потока : 948 Мбайт (93%)
Аудио
Идентификатор : 189 (0xBD)-128 (0x80)
Формат : AC-3
Формат/Информация : Audio Coding 3
Расширение режима : CM (complete main)
Параметр Endianness формата : Big
Режим смешивания : DVD-Video
Продолжительность : 40 м.
Вид битрейта : Постоянный
Битрейт : 192 Кбит/сек
Каналы : 2 канала
Расположение каналов : Front: L R
Частота : 48,0 КГц
Битовая глубина : 16 бит
Метод сжатия : С потерями
Размер потока : 55,1 Мбайт (5%)
Меню
Общее
Полное имя : D:\Films\Dachniki\Disk1_spektakl'\VTS_03_2.VOB
Формат : MPEG-PS
Размер файла : 912 Мбайт
Продолжительность : 33 м.
Режим общего битрейта : Переменный
Общий поток : 3800 Кбит/сек
Видео
Идентификатор : 224 (0xE0)
Формат : MPEG Video
Версия формата : Version 2
Профиль формата : [email protected]
Параметр BVOP формата : Да
Параметр матрицы формата : Выборочная
Параметр GOP формата : M=3, N=15
Продолжительность : 33 м.
Вид битрейта : Переменный
Битрейт : 3532 Кбит/сек
Максимальный битрейт : 6500 Кбит/сек
Ширина : 720 пикселей
Высота : 576 пикселей
Соотношение сторон : 4:3
Частота кадров : 25,000 кадров/сек
Стандарт вещания : PAL
Цветовое пространство : YUV
Субдискретизация насыщенности : 4:2:0
Битовая глубина : 8 бит
Тип развёртки : Чересстрочная
Порядок развёртки : Верхнее поле первое
Метод сжатия : С потерями
Бит/(Пиксели*Кадры) : 0.341
Временной код первого кадра : 00:40:06:07
Оригинал временного кода : Group of pictures header
Размер потока : 847 Мбайт (93%)
Аудио
Идентификатор : 189 (0xBD)-128 (0x80)
Формат : AC-3
Формат/Информация : Audio Coding 3
Расширение режима : CM (complete main)
Параметр Endianness формата : Big
Режим смешивания : DVD-Video
Продолжительность : 33 м.
Вид битрейта : Постоянный
Битрейт : 192 Кбит/сек
Каналы : 2 канала
Расположение каналов : Front: L R
Частота : 48,0 КГц
Битовая глубина : 16 бит
Метод сжатия : С потерями
Задержка видео : -760 мс.
Размер потока : 46,1 Мбайт (5%)
Меню
Общее
Полное имя : D:\Films\Dachniki\Disk1_spektakl'\VTS_04_0.BUP
Формат : DVD Video
Профиль формата : Program
Размер файла : 60,0 Кбайт
Продолжительность : 1 ч. 33 м.
Режим общего битрейта : Переменный
Общий поток : 88 бит/сек
Видео
Идентификатор : 224 (0xE0)
Формат : MPEG Video
Версия формата : Version 2
Продолжительность : 1 ч. 33 м.
Вид битрейта : Переменный
Ширина : 720 пикселей
Высота : 576 пикселей
Соотношение сторон : 4:3
Частота кадров : 25,000 кадров/сек
Стандарт вещания : PAL
Метод сжатия : С потерями
Аудио
Идентификатор : 128 (0x80)
Формат : AC-3
Формат/Информация : Audio Coding 3
Продолжительность : 1 ч. 33 м.
Каналы : 2 канала
Частота : 48,0 КГц
Метод сжатия : С потерями
Язык : Russian
Меню
Продолжительность : 1 ч. 33 м.
00:00:00.000 : Chapter 1
00:13:41.520 : Chapter 2
00:27:18.400 : Chapter 3
00:49:35.000 : Chapter 4
01:05:44.000 : Chapter 5
01:20:52.920 : Chapter 6
01:33:20.440 : Chapter 7
List (Audio) : 0
Общее
Полное имя : D:\Films\Dachniki\Disk1_spektakl'\VTS_04_0.IFO
Формат : DVD Video
Профиль формата : Program
Размер файла : 60,0 Кбайт
Продолжительность : 1 ч. 33 м.
Режим общего битрейта : Переменный
Общий поток : 88 бит/сек
Видео
Идентификатор : 224 (0xE0)
Формат : MPEG Video
Версия формата : Version 2
Продолжительность : 1 ч. 33 м.
Вид битрейта : Переменный
Ширина : 720 пикселей
Высота : 576 пикселей
Соотношение сторон : 4:3
Частота кадров : 25,000 кадров/сек
Стандарт вещания : PAL
Метод сжатия : С потерями
Аудио
Идентификатор : 128 (0x80)
Формат : AC-3
Формат/Информация : Audio Coding 3
Продолжительность : 1 ч. 33 м.
Каналы : 2 канала
Частота : 48,0 КГц
Метод сжатия : С потерями
Язык : Russian
Меню
Продолжительность : 1 ч. 33 м.
00:00:00.000 : Chapter 1
00:13:41.520 : Chapter 2
00:27:18.400 : Chapter 3
00:49:35.000 : Chapter 4
01:05:44.000 : Chapter 5
01:20:52.920 : Chapter 6
01:33:20.440 : Chapter 7
List (Audio) : 0
Общее
Полное имя : D:\Films\Dachniki\Disk1_spektakl'\VTS_04_0.VOB
Формат : MPEG-PS
Размер файла : 154 Кбайт
Продолжительность : 520 мс.
Общий поток : 2426 Кбит/сек
Видео
Идентификатор : 224 (0xE0)
Формат : MPEG Video
Версия формата : Version 2
Профиль формата : [email protected]
Параметр BVOP формата : Да
Параметр матрицы формата : Выборочная
Продолжительность : 520 мс.
Максимальный битрейт : 2000 Кбит/сек
Ширина : 720 пикселей
Высота : 576 пикселей
Соотношение сторон : 4:3
Частота кадров : 25,000 кадров/сек
Стандарт вещания : PAL
Цветовое пространство : YUV
Субдискретизация насыщенности : 4:2:0
Битовая глубина : 8 бит
Тип развёртки : Чересстрочная
Порядок развёртки : Верхнее поле первое
Метод сжатия : С потерями
Временной код первого кадра : 00:00:00:00
Оригинал временного кода : Group of pictures header
Текст
Идентификатор : 189 (0xBD)-32 (0x20)
Формат : RLE
Формат/Информация : Run-length encoding
Режим смешивания : DVD-Video
Задержка видео : -80 мс.
Меню
Общее
Полное имя : D:\Films\Dachniki\Disk1_spektakl'\VTS_04_1.VOB
Формат : MPEG-PS
Размер файла : 1024 Мбайт
Продолжительность : 37 м.
Режим общего битрейта : Переменный
Общий поток : 3802 Кбит/сек
Видео
Идентификатор : 224 (0xE0)
Формат : MPEG Video
Версия формата : Version 2
Профиль формата : [email protected]
Параметр BVOP формата : Да
Параметр матрицы формата : Выборочная
Параметр GOP формата : Variable
Продолжительность : 37 м.
Вид битрейта : Переменный
Битрейт : 3535 Кбит/сек
Максимальный битрейт : 6500 Кбит/сек
Ширина : 720 пикселей
Высота : 576 пикселей
Соотношение сторон : 4:3
Частота кадров : 25,000 кадров/сек
Стандарт вещания : PAL
Цветовое пространство : YUV
Субдискретизация насыщенности : 4:2:0
Битовая глубина : 8 бит
Тип развёртки : Чересстрочная
Порядок развёртки : Верхнее поле первое
Метод сжатия : С потерями
Бит/(Пиксели*Кадры) : 0.341
Временной код первого кадра : 00:00:00:00
Оригинал временного кода : Group of pictures header
Размер потока : 952 Мбайт (93%)
Аудио
Идентификатор : 189 (0xBD)-128 (0x80)
Формат : AC-3
Формат/Информация : Audio Coding 3
Расширение режима : CM (complete main)
Параметр Endianness формата : Big
Режим смешивания : DVD-Video
Продолжительность : 37 м.
Вид битрейта : Постоянный
Битрейт : 192 Кбит/сек
Каналы : 2 канала
Расположение каналов : Front: L R
Частота : 48,0 КГц
Битовая глубина : 16 бит
Метод сжатия : С потерями
Размер потока : 51,7 Мбайт (5%)
Меню
Общее
Полное имя : D:\Films\Dachniki\Disk1_spektakl'\VTS_04_2.VOB
Формат : MPEG-PS
Размер файла : 1024 Мбайт
Продолжительность : 41 м.
Режим общего битрейта : Переменный
Общий поток : 3448 Кбит/сек
Видео
Идентификатор : 224 (0xE0)
Формат : MPEG Video
Версия формата : Version 2
Профиль формата : [email protected]
Параметр BVOP формата : Да
Параметр матрицы формата : Выборочная
Параметр GOP формата : M=3, N=15
Продолжительность : 41 м.
Вид битрейта : Переменный
Битрейт : 3187 Кбит/сек
Максимальный битрейт : 6500 Кбит/сек
Ширина : 720 пикселей
Высота : 576 пикселей
Соотношение сторон : 4:3
Частота кадров : 25,000 кадров/сек
Стандарт вещания : PAL
Цветовое пространство : YUV
Субдискретизация насыщенности : 4:2:0
Битовая глубина : 8 бит
Тип развёртки : Чересстрочная
Порядок развёртки : Верхнее поле первое
Метод сжатия : С потерями
Бит/(Пиксели*Кадры) : 0.307
Временной код первого кадра : 00:37:38:19
Оригинал временного кода : Group of pictures header
Размер потока : 946 Мбайт (92%)
Аудио
Идентификатор : 189 (0xBD)-128 (0x80)
Формат : AC-3
Формат/Информация : Audio Coding 3
Расширение режима : CM (complete main)
Параметр Endianness формата : Big
Режим смешивания : DVD-Video
Продолжительность : 41 м.
Вид битрейта : Постоянный
Битрейт : 192 Кбит/сек
Каналы : 2 канала
Расположение каналов : Front: L R
Частота : 48,0 КГц
Битовая глубина : 16 бит
Метод сжатия : С потерями
Задержка видео : -568 мс.
Размер потока : 57,0 Мбайт (6%)
Меню
Общее
Полное имя : D:\Films\Dachniki\Disk1_spektakl'\VTS_04_3.VOB
Формат : MPEG-PS
Размер файла : 406 Мбайт
Продолжительность : 14 м.
Режим общего битрейта : Переменный
Общий поток : 3998 Кбит/сек
Видео
Идентификатор : 224 (0xE0)
Формат : MPEG Video
Версия формата : Version 2
Профиль формата : [email protected]
Параметр BVOP формата : Да
Параметр матрицы формата : Выборочная
Параметр GOP формата : M=3, N=15
Продолжительность : 14 м.
Вид битрейта : Переменный
Битрейт : 3727 Кбит/сек
Максимальный битрейт : 6500 Кбит/сек
Ширина : 720 пикселей
Высота : 576 пикселей
Соотношение сторон : 4:3
Частота кадров : 25,000 кадров/сек
Стандарт вещания : PAL
Цветовое пространство : YUV
Субдискретизация насыщенности : 4:2:0
Битовая глубина : 8 бит
Тип развёртки : Чересстрочная
Порядок развёртки : Верхнее поле первое
Метод сжатия : С потерями
Бит/(Пиксели*Кадры) : 0.359
Временной код первого кадра : 01:19:09:18
Оригинал временного кода : Group of pictures header
Размер потока : 378 Мбайт (93%)
Аудио
Идентификатор : 189 (0xBD)-128 (0x80)
Формат : AC-3
Формат/Информация : Audio Coding 3
Расширение режима : CM (complete main)
Параметр Endianness формата : Big
Режим смешивания : DVD-Video
Продолжительность : 14 м.
Вид битрейта : Постоянный
Битрейт : 192 Кбит/сек
Каналы : 2 канала
Расположение каналов : Front: L R
Частота : 48,0 КГц
Битовая глубина : 16 бит
Метод сжатия : С потерями
Задержка видео : -584 мс.
Размер потока : 19,5 Мбайт (5%)
Меню
Title: DACHNIKI
Size: 4.36 Gb ( 4 575 376 KBytes ) - DVD-5
Enabled regions: 5
VTS_01 :
Play Length: 00:00:12
Video: PAL 4:3 (720x576) VBR
Audio:
Not specified (Dolby AC3, 2 ch)
VTS_02 :
Play Length: 00:00:26
Video: PAL 4:3 (720x576) VBR
Audio:
Not specified (Dolby AC3, 2 ch)
VTS_03 :
Play Length: 01:13:39
Video: PAL 4:3 (720x576) VBR
Audio:
Russian (Dolby AC3, 2 ch)
VTS_04 :
Play Length: 01:33:21
Video: PAL 4:3 (720x576) VBR
Audio:
Russian (Dolby AC3, 2 ch)
Menu Video:
PAL 4:3 (720x576) VBR
Menu Subtitles:
Not specified
Menu English Language Unit :
Root Menu
Chapter (PTT) Menu
Title: TEATRY
Size: 2.17 Gb ( 2 278 242 KBytes ) - DVD-5
Enabled regions: 5
VTS_01 :
Play Length: 00:00:12
Video: PAL 4:3 (720x576) VBR
Audio:
Not specified (Dolby AC3, 2 ch)
VTS_02 :
Play Length: 00:00:26
Video: PAL 4:3 (720x576) VBR
Audio:
Not specified (Dolby AC3, 2 ch)
VTS_03 :
Play Length: 00:02:47
Video: PAL 4:3 (720x576) VBR
Audio:
Russian (Dolby AC3, 2 ch)
VTS_04 :
Play Length: 00:01:35
Video: PAL 4:3 (720x576) VBR
Audio:
Russian (Dolby AC3, 2 ch)
VTS_05 :
Play Length: 00:03:34
Video: PAL 4:3 (720x576) VBR
Audio:
Russian (Dolby AC3, 2 ch)
VTS_06 :
Play Length: 00:02:16
Video: PAL 4:3 (720x576) VBR
Audio:
Russian (Dolby AC3, 2 ch)
VTS_07 :
Play Length: 00:03:33
Video: PAL 4:3 (720x576) VBR
Audio:
Russian (Dolby AC3, 2 ch)
VTS_08 :
Play Length: 00:03:40
Video: PAL 4:3 (720x576) VBR
Audio:
Russian (Dolby AC3, 2 ch)
VTS_09 :
Play Length: 00:01:31
Video: PAL 4:3 (720x576) VBR
Audio:
Russian (Dolby AC3, 2 ch)
VTS_10 :
Play Length: 00:04:04
Video: PAL 4:3 (720x576) VBR
Audio:
Russian (Dolby AC3, 2 ch)
VTS_11 :
Play Length: 00:03:54
Video: PAL 4:3 (720x576) VBR
Audio:
Russian (Dolby AC3, 2 ch)
VTS_12 :
Play Length: 00:03:35
Video: PAL 4:3 (720x576) VBR
Audio:
Russian (Dolby AC3, 2 ch)
VTS_13 :
Play Length: 00:02:41
Video: PAL 4:3 (720x576) VBR
Audio:
Russian (Dolby AC3, 2 ch)
VTS_14 :
Play Length: 00:03:28
Video: PAL 4:3 (720x576) VBR
Audio:
Russian (Dolby AC3, 2 ch)
VTS_15 :
Play Length: 00:02:29
Video: PAL 4:3 (720x576) VBR
Audio:
Russian (Dolby AC3, 2 ch)
VTS_16 :
Play Length: 00:03:10
Video: PAL 4:3 (720x576) VBR
Audio:
Russian (Dolby AC3, 2 ch)
VTS_17 :
Play Length: 00:03:58
Video: PAL 4:3 (720x576) VBR
Audio:
Russian (Dolby AC3, 2 ch)
VTS_18 :
Play Length: 00:03:53
Video: PAL 4:3 (720x576) VBR
Audio:
Russian (Dolby AC3, 2 ch)
VTS_19 :
Play Length: 00:03:01
Video: PAL 4:3 (720x576) VBR
Audio:
Russian (Dolby AC3, 2 ch)
VTS_20 :
Play Length: 00:03:24
Video: PAL 4:3 (720x576) VBR
Audio:
Russian (Dolby AC3, 2 ch)
VTS_21 :
Play Length: 00:02:51
Video: PAL 4:3 (720x576) VBR
Audio:
Russian (Dolby AC3, 2 ch)
VTS_22 :
Play Length: 00:02:12
Video: PAL 4:3 (720x576) VBR
Audio:
Russian (Dolby AC3, 2 ch)
VTS_23 :
Play Length: 00:01:15
Video: PAL 4:3 (720x576) VBR
VTS_24 :
Play Length: 00:01:05
Video: PAL 4:3 (720x576) VBR
VTS_25 :
Play Length: 00:01:05
Video: PAL 4:3 (720x576) VBR
VTS_26 :
Play Length: 00:01:10
Video: PAL 4:3 (720x576) VBR
VTS_27 :
Play Length: 00:01:10
Video: PAL 4:3 (720x576) VBR
VTS_28 :
Play Length: 00:01:05
Video: PAL 4:3 (720x576) VBR
VTS_29 :
Play Length: 00:00:55
Video: PAL 4:3 (720x576) VBR
С интересом и удовольствием посмотрела, наконец-то, этот фильм-спектакль! Хочу сказать, что в отличие от кинокартины "Дачники" режиссёра и исполнителя роли Суслова - Бориса Бабочкина, он меня приятно впечатлил как самой постановкой, так и большинством актёрских работ. И это при том, что предпочитаю всё же кинофильмы театральным постановкам: в первых больше жизни, если можно так выразиться..:) Но, смотря однажды фильм по сценарию Бабочкина, меня, помнится, то и дело клонило в сон, к тому же вдруг возникла "крамольная" мысль: а Горький ли эту пьесу написал?! - до того каким-то неправдоподобным казалось происходящее на экране, большей частью, именно из-за пафосного произношения актёрами фраз. Чарующая красота женщин-актрис и их сногсшибательные платья - вот, пожалуй, то, что мне больше всего запомнилось из кинокартины "Дачники". А вот фильм-спектакль, срежиссированный Салюком и Муат, отобразил "интеллигентствующего" обывателя как давно минувших дней, так и дней грядущих. Ещё отмечу, что роль Калерии Васильевны, на мой взгляд, гораздо больше удалась Генриетте Егоровой, Варвары Басовой - Светлане Коркошко, Юлии Сусловой - Элине Быстрицкой, Власа - Борису Щербакову, Марьи Львовны - Ие Савиной, Семёна Двоеточие - Владлену Давыдову. Фильм-спектакль двухсерийный. Позволю-ка себе лёгкую иронию с долей грусти в заключение этого своего сообщения, мол, "О чём говорят мужчины" и "О чём говорят женщины"...
Данное издание из рубрики «Его Величество Театр». Содержит два диска DVD5.
Первый – это, собственно, спектакль МХАТ им.М.Горького. На втором, зрителю предлагаются дополнительные материалы, содержащие рассказы об истории театров, о выдающихся актерах, а также самые захватывающие фрагменты телеспектаклей из золотого фонда советского телевидения.
Производство ТО «Экран», 1979 год. ФГУП "ВГТРК", 2008 год. Выпуск и распространение видеоносителей осуществляется компанией «ДВД Магия» по лицензии Киновидеообъединения «Крупный план».
Постановка Владимира Салюка. Оператор: Бунин Л.
Download / Скачать

Хотите скачать бесплатно? Зарегистрируйтесь на сайте (ссылка на регистрацию). Pirat.ca - самый быстрый торрент трекер в рунете!

Как скачивать  ·   Что такое торрент  ·   Рейтинг и ограничения

Voldemartop

Легенда

1547

Пост 11-Май-2014 03:18 (спустя 3 часа)

[Q] 

Благо Дарю!!!
Автору респект!!! +

_________________


МОИ РАЗДАЧИ
[Профиль]  [ЛС] 

marsel1620 ®

Шкипер

131

Пост 16-Май-2014 12:27 (спустя 5 дней)

[Q] 

Выложил здесь rip с этого DVD.
[Профиль]  [ЛС] 

Гатар

Морской Волк

130

Пост 20-Май-2014 12:10 (спустя 3 дня)

[Q] 

Встану на раздачу, после скачивания.
[Профиль]  [ЛС] 
Показать сообщения:    
Ответить на тему

Текущее время: Сегодня 00:24

Часовой пояс: GMT + 4



Вы не можете начинать темы
Вы не можете отвечать на сообщения
Вы не можете редактировать свои сообщения
Вы не можете удалять свои сообщения
Вы не можете голосовать в опросах
Вы не можете прикреплять файлы к сообщениям
Вы не можете скачивать файлы

▼ Вниз