ML
     
  Уважаемый Гость!
Вы можете поддержать проект и зарегистрироваться у наших партнеров - онлайн-стратегия MyLands. При регистрации в игре Вы получите код, который сможете активировать после регистрации на pirat.ca и получить 1000 дублонов.

Ваш код:
0af2e2107bc9b5dd5ac2c09f9fc25e1a77c43887
 
     

Дачники / МХАТ имени М.Горького (Мария Муат, Владимир Салюк) [1979 г., мелодрама, DVDRip] + Original (Rus)

Ответить на тему
 
Автор
Сообщение

Пост 14-Май-2014 17:10

[Q] 

marsel1620

Шкипер

-Дачники / МХАТ имени М.Горького-- Страна: СССР
Жанр: мелодрама
Год выпуска: 1979 г.
Продолжительность: 02:47:00
Перевод: Не требуется
Оригинальный аудиопоток: русский
Cубтитры: отсутствуют
Режиссер: Мария Муат, Владимир Салюк-В ролях: Леонид Губанов, Светлана Коркошко, Борис Щербаков, Александр Калягин, Маргарита Юрьева, Николай Пеньков, Любовь Стриженова, Ия Савина, Всеволод Абдулов, Юрий Пузырев.-Описание: Фильм-спектакль по одноименной пьесе М.Горького в постановке Московского Художественного академического театра Союза ССР имени М. Горького. Блистательная постановка самой "чеховской" пьесы М.Горького украшена игрой целого созвездия актеров театра и кино. Группа людей - адвокатов, инженеров, врачей и их родственников - проводит свой досуг на даче: ищут коротких романов и серьезной любви, жалуются на серость жизни и на несчастливые браки, беседуют об общественном благе...-Качество видео: DVDRip
Контейнер: AVI
Видео кодек: XviD
Аудио кодек: AC3
Видео: 704x384 (1.83:1), 25 fps, XviD build 64 ~1649 kbps avg, 0.24 bit/pixel
Аудио: 44.1 kHz, AC3 Dolby Digital, 2/0 (L,R) ch, ~192 kbps
Исходный DVD5 здесь
Общее
Полное имя : E:\Dachniki_pirat\Disk1_spektakl'_серия 1.avi
Формат : AVI
Формат/Информация : Audio Video Interleave
Размер файла : 976 Мбайт
Продолжительность : 1 ч. 13 м.
Общий поток : 1852 Кбит/сек
Программа кодирования : Lavf54.63.104
Видео
Идентификатор : 0
Формат : xvid
Идентификатор кодека : xvid
Продолжительность : 1 ч. 13 м.
Битрейт : 1650 Кбит/сек
Ширина : 704 пикселя
Высота : 384 пикселя
Соотношение сторон : 1,85:1
Частота кадров : 25,000 кадров/сек
Бит/(Пиксели*Кадры) : 0.244
Размер потока : 870 Мбайт (89%)
Аудио
Идентификатор : 1
Формат : AC-3
Формат/Информация : Audio Coding 3
Расширение режима : CM (complete main)
Параметр Endianness формата : Big
Идентификатор кодека : 2000
Продолжительность : 1 ч. 13 м.
Вид битрейта : Постоянный
Битрейт : 192 Кбит/сек
Каналы : 2 канала
Расположение каналов : Front: L R
Частота : 44,1 КГц
Битовая глубина : 16 бит
Метод сжатия : С потерями
Размер потока : 101 Мбайт (10%)
Выравнивание : Соединение по промежуткам
Продолжительность промежутка : 35 мс. (0,87 видеокадр)
File: Disk1_spektakl'_серия 1.avi
Filesize: 976.21 Mb ( 1 023 635 570 bytes )
Play length: 01:13:41.040 (110526 frames)
Subtitles: Not Present
Video: 704x384 (1.83:1), 25 fps, XviD build 64 ~1649 kbps avg, 0.24 bit/pixel
Audio: 44.1 kHz, AC3 Dolby Digital, 2/0 (L,R) ch, ~192 kbps
File: Disk1_spektakl'_серия 2.avi
Filesize: 1238.83 Mb ( 1 299 009 722 bytes )
Play length: 01:33:23.040 (140076 frames)
Subtitles: Not Present
Video: 704x384 (1.83:1), 25 fps, XviD build 64 ~1655 kbps avg, 0.25 bit/pixel
Audio: 44.1 kHz, AC3 Dolby Digital, 2/0 (L,R) ch, ~192 kbps
С интересом и удовольствием посмотрела, наконец-то, этот фильм-спектакль! Хочу сказать, что в отличие от кинокартины "Дачники" режиссёра и исполнителя роли Суслова - Бориса Бабочкина, он меня приятно впечатлил как самой постановкой, так и большинством актёрских работ. И это при том, что предпочитаю всё же кинофильмы театральным постановкам: в первых больше жизни, если можно так выразиться..:) Но, смотря однажды фильм по сценарию Бабочкина, меня, помнится, то и дело клонило в сон, к тому же вдруг возникла "крамольная" мысль: а Горький ли эту пьесу написал?! - до того каким-то неправдоподобным казалось происходящее на экране, большей частью, именно из-за пафосного произношения актёрами фраз. Чарующая красота женщин-актрис и их сногсшибательные платья - вот, пожалуй, то, что мне больше всего запомнилось из кинокартины "Дачники". А вот фильм-спектакль, срежиссированный Салюком и Муат, отобразил "интеллигентствующего" обывателя как давно минувших дней, так и дней грядущих. Ещё отмечу, что роль Калерии Васильевны, на мой взгляд, гораздо больше удалась Генриетте Егоровой, Варвары Басовой - Светлане Коркошко, Юлии Сусловой - Элине Быстрицкой, Власа - Борису Щербакову, Марьи Львовны - Ие Савиной, Семёна Двоеточие - Владлену Давыдову. Фильм-спектакль двухсерийный. Позволю-ка себе лёгкую иронию с долей грусти в заключение этого своего сообщения, мол, "О чём говорят мужчины" и "О чём говорят женщины".
Производство ТО «Экран», 1979 год. ФГУП "ВГТРК", 2008 год.
Выпуск и распространение видеоносителей осуществляется компанией «ДВД Магия» по лицензии Киновидеообъединения «Крупный план».
Постановка Владимира Салюка. Оператор: Бунин Л.
Download / Скачать

Хотите скачать бесплатно? Зарегистрируйтесь на сайте (ссылка на регистрацию). Pirat.ca - самый быстрый торрент трекер в рунете!

Как скачивать  ·   Что такое торрент  ·   Рейтинг и ограничения

Гатар

Морской Волк

130

Пост 20-Май-2014 12:12 (спустя 5 дней)

[Q] 

Помогу сидировать.
[Профиль]  [ЛС] 
Показать сообщения:    
Ответить на тему

Текущее время: Сегодня 00:08

Часовой пояс: GMT + 4



Вы не можете начинать темы
Вы не можете отвечать на сообщения
Вы не можете редактировать свои сообщения
Вы не можете удалять свои сообщения
Вы не можете голосовать в опросах
Вы не можете прикреплять файлы к сообщениям
Вы не можете скачивать файлы

▼ Вниз