ML
     
  Уважаемый Гость!
Вы можете поддержать проект и зарегистрироваться у наших партнеров - онлайн-стратегия MyLands. При регистрации в игре Вы получите код, который сможете активировать после регистрации на pirat.ca и получить 1000 дублонов.

Ваш код:
b70663c760e7cd2521b8e123786cdd788200e3bd
 
     

Спектакль "День Радио" (С.Петрейков) [2003 г., DVDRip]

Ответить на тему
 
Автор
Сообщение

Пост 29-Окт-2011 16:50

[Q] 

ev5

Морской Волк

спектакль "День Радио"
Год выпуска: 2003
Страна: Россия
Продолжительность: 02:40:00
Режиссер: С.Петрейков
В ролях: Леонид Барац, Камиль Ларин, Александр Демидов, Ростислав Хайт, М. Козырев, А. Кортнев, Д. Марьянов, М. Виторган, О. Кузина
Описание: Весьма виртуозно написанная пьеса, лихо закрученный сюжет, очень смешные диалоги - все это классические признаки «хорошо сделанной комедии».
В то же время «День Радио» удивительно точно передает атмосферу «как бы модной» радиостанции, а присутствие на сцене самого настоящего радиопродюсера Михаила Козырева в роли, фактически, самого себя, создает ощущение, будто смотришь реалити-шоу из жизни радийного коллектива. Ну, а участие в спектакле группы «Несчастный Cлучай», исполняющей целых 10 оригинальных, специально для него написанных песен, окончательно запутывает любого, кто попробует определить жанр происходящего. Это точно не мюзикл... хотя 35 минут звучания живой музыки... производственная пьеса? - но это не скучная калька с повседневности, это безумно смешно, а при этом не фарс... Короче, это надо видеть.
Сюжет не сложен. Тема тщательно подготовленного на радиостанции музыкального марафона о «потерявшихся в Конго туристах» за полчаса до эфира вдруг начинает муссироваться конкурирующей радиостанцией. На выяснение, через кого прошла учечка информации, времени нет – срочно нужна новая тема. Пока ДиДжеи тянут время в эфире, креативная группа проводит «мозговую атаку». И выход найден.
Технические неполадки на маленьком баркасе в Японском море превращаются в крушение огромного океанского лайнера, а небольшой цирк на борту баркаса в - страшно подумать - уникальный зоопарк с редчайшими, всего в одном экземпляре сохранившимися животными. Марафон стартует и в борьбу за выживание бородатой выхухоли, двузубого чернопопика, подкустовного выползня и других настолько редких животных, что про них никто никогда не слышал, включается весь мир.
Среди сопереживающих - и Бриджит Бардо, интервью с которой на ходу монтируется из аудио-уроков французского языка, и «ведущий специалист по редким животным» в исполнении подвыпившего звукотехника Камиля, и, конечно же, приглашенные на марафон музыкальные группы, все без исключения виртуозно сыгранные Алексеем Кортневым и командой «Несчастный случай».
Страсти вокруг экологической катастрофы накаляются настолько, что Министерство Обороны получает приказ направить в зону бедствия эсминец, и только случайно обнаружившиеся родственные связи администратора «Как бы Радио» в МинОбороны спасают продюсера станции от неминуемого разоблачения.
Михаил Козырев расслабленно сворачивается в своем продюсерском кресле, а со сцены льется неподражаемое «А я болею от радио...» в исполнении «Несчастного случая»…
D:\torrent\film_11\Квартет И\День Радио.avi
General
Complete name : D:\torrent\film_11\Квартет И\День Радио.avi
Format : AVI
Format/Info : Audio Video Interleave
File size : 698 MiB
Duration : 2h 16mn
Overall bit rate : 716 Kbps
Writing application : VirtualDubMod 1.5.10.1 (build 2366/release)
Writing library : VirtualDubMod build 2366/release
Video #0
ID : 0
Format : MPEG-4 Visual
Format settings, BVOP : Yes
Format settings, QPel : No
Format settings, GMC : No warppoints
Format settings, Matrix : Default (H.263)
Muxing mode : Packed bitstream
Codec ID : DX50
Codec ID/Hint : DivX 5
Duration : 2h 16mn
Bit rate : 608 Kbps
Width : 456 pixels
Height : 266 pixels
Display aspect ratio : 16:9
Frame rate : 25.000 fps
Resolution : 24 bits
Colorimetry : 4:2:0
Scan type : Progressive
Bits/(Pixel*Frame) : 0.200
Stream size : 592 MiB (85%)
Writing library : DivX 5.2.1 (DrDivX 106) (UTC 2004-09-08)
Audio #1
ID : 1
Format : MPEG Audio
Format version : Version 1
Format profile : Layer 3
Codec ID : 55
Codec ID/Hint : MP3
Duration : 2h 16mn
Bit rate mode : Variable
Bit rate : 98.3 Kbps
Nominal bit rate : 96.0 Kbps
Channel(s) : 2 channels
Sampling rate : 32.0 KHz
Resolution : 16 bits
Stream size : 95.8 MiB (14%)
Alignment : Aligned on interleaves
Interleave, duration : 36 ms (0.90 video frame)
Interleave, preload duration : 503 ms
Writing library : LAME3.90.
Encoding settings : -m j -V 0 -q 5 -lowpass 12.3 --abr 96
Качество: DVDRip
Формат: AVI
Видео кодек: DivX
Аудио кодек: MP3
Видео: 456x266 (1.71:1), 25 fps, DivX Codec 5.2.1 build 1338 ~607 kbps avg, 0.20 bit/pixel
Аудио: 32 kHz, MPEG Layer 3, 2 ch, ~98.34 kbps avg


Download / Скачать

Хотите скачать бесплатно? Зарегистрируйтесь на сайте (ссылка на регистрацию). Pirat.ca - самый быстрый торрент трекер в рунете!

Как скачивать  ·   Что такое торрент  ·   Рейтинг и ограничения



Последний раз редактировалось: ev5 (2011-11-09 15:14), всего редактировалось 1 раз

yoozh

Лоцман

Пост 25-Ноя-2011 21:56 (спустя 27 дней)

[Q] 

Замечательный спектакль и замечательная игра актеров! Скачал и буду на раздаче...
[Профиль]  [ЛС] 

nikandro

Морской Волк

Пост 13-Мар-2012 23:42 (спустя 3 месяца 18 дней)

[Q] 

Классика..
[Профиль]  [ЛС] 

Муравей03

Лоцман

Пост 14-Апр-2012 01:05 (спустя 1 месяц)

[Q] 

Спектакль роскошный, а нет ли с Гришаевой?
[Профиль]  [ЛС] 

Chiochanka

Морской Волк

Пост 24-Сен-2012 20:04 (спустя 5 месяцев 10 дней)

[Q] 

[Профиль]  [ЛС] 

bymbastik

Лоцман

Пост 27-Мар-2013 18:45 (спустя 6 месяцев 2 дня)

[Q] 

Несколько лет назад в Екатеринбурге был на спектакле. С тех пор искал на DVD в личную видеотеку. И нашёл вот только сейчас.
Огромное СПАСИБО за праздник )))
[Профиль]  [ЛС] 

Алоизий

Флибустьер

Пост 03-Сен-2013 16:29 (спустя 5 месяцев 6 дней)

[Q] 

Эй, вернитесь на раздачу...
[Профиль]  [ЛС] 

survol

Юнга

Пост 10-Мар-2014 16:27 (спустя 6 месяцев 6 дней)

[Q] 

Да, классный спектакль, с большим удовольствием ходил на него.
[Профиль]  [ЛС] 

Гатар

Морской Волк

130

Пост 24-Май-2014 07:02 (спустя 2 месяца 13 дней)

[Q] 

Фильм видел, интересно как спектакль отличается.
[Профиль]  [ЛС] 

Sparkling

Штурман

Пост 03-Май-2015 21:38 (спустя 11 месяцев 10 дней)

[Q] 

Спектакль лучше, чем фильм. Смотрел с удовольствием!
[Профиль]  [ЛС] 
Показать сообщения:    
Ответить на тему

Текущее время: Сегодня 00:18

Часовой пояс: GMT + 4



Вы не можете начинать темы
Вы не можете отвечать на сообщения
Вы не можете редактировать свои сообщения
Вы не можете удалять свои сообщения
Вы не можете голосовать в опросах
Вы не можете прикреплять файлы к сообщениям
Вы не можете скачивать файлы

▼ Вниз