ML
     
  Уважаемый Гость!
Вы можете поддержать проект и зарегистрироваться у наших партнеров - онлайн-стратегия MyLands. При регистрации в игре Вы получите код, который сможете активировать после регистрации на pirat.ca и получить 1000 дублонов.

Ваш код:
500cb7bd8d2cec9a8aba647a87ce41c4b76f06bd
 
     

Квартет И - Ля Комедия или мы будем развлекать вас всеми средствами, которые хороши! (С.Петрейков) [2006 г., Юмор, спектакль, DVDRip]

Ответить на тему
 
Автор
Сообщение

Пост 29-Окт-2011 17:18

[Q] 

ev5

Морской Волк

Квартет И - Ля Комедия или мы будем развлекать вас всеми средствами, которые хороши!
Год выпуска: 2006
Страна: Россия
Жанр: Юмор, спектакль
Продолжительность: 02:32:14
Режиссер: С.Петрейков
В ролях: Квартет И: Леонид Барац, Александр Демидов, Ростислав Хаит, Камиль Ларин.
Описание: Вы держите в руках уникальную запись спектакля "Ля Комедия, или...", сделанную полулегально одним из наших поклонников с балкона ДК им. Зуева в день последнего исполнения спектакля. Мы неодкратно фиксировали этот спектакль на видопленку, но всегда это были съемки "бытового" "домашнего" качества: профессиональной съемки "Ля Комедия" не существует. И эта запись, сделанная цифровой камерой в апреле 2003 года, оказалась чуть ли не единственной, которую не стыдно предъявить людям. "Ля Комедия" стала нашим вторым спектаклем и первым, созданым абсолютно самостоятельно ("Это только штампы" появились еще во время обучения в ГИТИСе). После ее премьеры в мае 1995 г. мы наконец-то почувствовали себя настоящим театром, у которого есть репертуар - пусть даже и из двух названий. Оправдывая вторую часть своего названия, спектакль существовал сразу в нескольких жанрах (причем, не только театральных), а от актеров требовал владения десятков различных актерских умений. Именно поэтому на "Ля комедию" зрители приходили по несколько раз - "потому что в ней столько всего, что трудно за один раз все это воспринять".
D:\torrent\film_11\Квартет И\Квартет И - Ля Комедия, или....avi
General
Complete name : D:\torrent\film_11\Квартет И\Квартет И - Ля Комедия, или....avi
Format : AVI
Format/Info : Audio Video Interleave
File size : 1.36 GiB
Duration : 2h 32mn
Overall bit rate : 1 277 Kbps
Writing application : VirtualDubMod 1.5.4.1 (build 2178/release)
Writing library : VirtualDubMod build 2178/release
Video #0
ID : 0
Format : MPEG-4 Visual
Format settings, BVOP : Yes
Format settings, QPel : No
Format settings, GMC : No warppoints
Format settings, Matrix : Default (H.263)
Muxing mode : Packed bitstream
Codec ID : DX50
Codec ID/Hint : DivX 5
Duration : 2h 32mn
Bit rate : 1 142 Kbps
Width : 512 pixels
Height : 384 pixels
Display aspect ratio : 4:3
Frame rate : 25.000 fps
Resolution : 24 bits
Colorimetry : 4:2:0
Scan type : Progressive
Bits/(Pixel*Frame) : 0.232
Stream size : 1.21 GiB (89%)
Writing library : DivX 5.2.0 (UTC 2004-07-15)
Audio #1
ID : 1
Format : MPEG Audio
Format version : Version 1
Format profile : Layer 3
Codec ID : 55
Codec ID/Hint : MP3
Duration : 2h 32mn
Bit rate mode : Constant
Bit rate : 128 Kbps
Channel(s) : 2 channels
Sampling rate : 48.0 KHz
Resolution : 16 bits
Stream size : 139 MiB (10%)
Alignment : Aligned on interleaves
Interleave, duration : 80 ms (2.00 video frames)
Interleave, preload duration : 504 ms
Writing library : LAME3.97b
Encoding settings : -m j -V 4 -q 2 -lowpass 17 -b 128
Language : Russian
Качество: DVDRip
Формат: AVI
Видео кодек: XviD
Аудио кодек: MP3
Видео: 512x384 (1.33:1), 25 fps, DivX Codec 5.2 ~1142 kbps avg, 0.23 bit/pixel
Аудио: 48 kHz, MPEG Layer 3, 2 ch, ~128.00 kbps


Download / Скачать

Хотите скачать бесплатно? Зарегистрируйтесь на сайте (ссылка на регистрацию). Pirat.ca - самый быстрый торрент трекер в рунете!

Как скачивать  ·   Что такое торрент  ·   Рейтинг и ограничения



Последний раз редактировалось: ev5 (2011-11-09 15:11), всего редактировалось 1 раз

Amon

Корсар

Пост 30-Окт-2011 00:10 (спустя 6 часов)

[Q] 

Спасибо!
[Профиль]  [ЛС] 

Пост 02-Ноя-2011 14:43 (спустя 3 дня)

Топик был перенесен из форума Театр в форум Спектакли и театральные постановки

Чужая
 

h5n1

Гроза морей

483

Пост 02-Ноя-2011 17:26 (спустя 3 дня)

[Q] 

встаньте на раздачу плиз, кто нибудь

_________________
«Мы находимся здесь, чтобы внести свой вклад в этот мир. Иначе зачем мы здесь?» S.Jobs
[Профиль]  [ЛС] 

Filimonia

Корсар

Пост 05-Ноя-2011 18:02 (спустя 3 дня)

[Q] 

Спасибо!
[Профиль]  [ЛС] 

Filimonia

Корсар

Пост 08-Ноя-2011 03:46 (спустя 2 дня 9 часов)

[Q] 

Перезалейте пожалуйста Вашу суперскую раздачу:
Внимание! Просьба перезалить торрент файлы за последнюю неделю.
[Профиль]  [ЛС] 

ev5 ®

Морской Волк

1286

Пост 09-Ноя-2011 16:35 (спустя 1 день 12 часов)

[Q] 

перезалил
[Профиль]  [ЛС] 

ivan836

Морской Волк

Пост 20-Фев-2012 17:55 (спустя 3 месяца 11 дней)

[Q] 

Отлично!!!!! Спасибо!!!
[Профиль]  [ЛС] 

abc7

Гроза морей

464

Пост 19-Мар-2012 21:50 (спустя 28 дней)

[Q] 

[Профиль]  [ЛС] 

survol

Юнга

Пост 10-Мар-2014 16:09 (спустя 1 год 11 месяцев)

[Q] 

Спасибо !!!!!!
[Профиль]  [ЛС] 
Показать сообщения:    
Ответить на тему

Текущее время: Сегодня 01:44

Часовой пояс: GMT + 4



Вы не можете начинать темы
Вы не можете отвечать на сообщения
Вы не можете редактировать свои сообщения
Вы не можете удалять свои сообщения
Вы не можете голосовать в опросах
Вы не можете прикреплять файлы к сообщениям
Вы не можете скачивать файлы

▼ Вниз