ML
     
  Уважаемый Гость!
Вы можете поддержать проект и зарегистрироваться у наших партнеров - онлайн-стратегия MyLands. При регистрации в игре Вы получите код, который сможете активировать после регистрации на pirat.ca и получить 1000 дублонов.

Ваш код:
11f49771fdf057c9d51610e4a0925c3b46ddb655
 
     

Школа злословия / МХАТ им М.Горького (Николай Горчаков, Абрам Роом) [1956 г., комедия, DVD5, PAL]

Ответить на тему
 
Автор
Сообщение

Пост 11-Дек-2014 21:10

[Q] 

vereski

Лоцман

-Школа злословия / МХАТ им М.Горького-- Страна: СССР
Жанр: комедия
Год выпуска: 1956 г.
Продолжительность: 02:37
Перевод: Не требуется
Cубтитры: отсутствуют
Режиссер: Николай Горчаков, Абрам Роом-В ролях: Михаил Яншин, Ольга Андровская, Владимир Ершов, Анатолий Кторов, Павел Массальский, Мария Дурасова и другие-Описание: Англия XVIII в. Молодая леди Тизл, провинциалка из семьи бедного помещика, вышедшая замуж за пожилого родовитого сэра Питера, попадает в салон леди Снируэл - своеобразную "академию злословия", где царствуют сплетни и клевета. Приобщая леди Тизл к "высшему свету", завсегдатаи салона всемерно помогают ханже и лицемеру Джозефу Сэрфесу обольстить молодую женщину. Однако планы Джозефа расстраивает его дядюшка-богач, внезапно вернувшийся в Англию из Индии. При помощи хитроумной уловки он проникает инкогнито в дом Джозефа. Дядюшке удаётся разоблачить лицемерие Джозефа. Между тем леди Тизл открываются истинные лица посетителей "великосветского" салона - лица клеветников, ханжей и лицемеров.-Качество видео: DVD5
Контейнер: DVD Video
Видео кодек: MPEG2
Аудио кодек: AC3
Видео: PAL 4:3 (720x576) VBR; частота кадров: 25,000 кадров/сек; битрейт: 3639 Кбит/сек
Формат DVD: PAL
Аудио: AC3, 2/0 ch, 192Kbps, частота: 48,0 КГц.
Полное имя Shkola_Zloslovija_DVD5\VIDEO_TS\VTS_01_2.VOB
Формат : MPEG-PS
Размер файла : 1024 Мбайт
Продолжительность : 36 м.
Режим общего битрейта : Переменный
Общий поток : 3909 Кбит/сек
Видео
Идентификатор : 224 (0xE0)
Формат : MPEG Video
Версия формата : Version 2
Профиль формата : [email protected]
Параметр BVOP формата : Да
Параметр матрицы формата : Выборочная
Параметр GOP формата : M=3, N=15
Format_Settings_PictureStructure : Frame
Продолжительность : 36 м.
Вид битрейта : Переменный
Битрейт : 3639 Кбит/сек
Максимальный битрейт : 9500 Кбит/сек
Ширина : 720 пикселей
Высота : 576 пикселей
Соотношение сторон : 4:3
Частота кадров : 25,000 кадров/сек
Стандарт вещания : PAL
Цветовое пространство : YUV
Субдискретизация насыщенности : 4:2:0
Битовая глубина : 8 бит
Тип развёртки : Чересстрочная
Порядок развёртки : Нижнее поле первое
Метод сжатия : С потерями
Бит/(Пиксели*Кадры) : 0.351
Временной код первого кадра : 00:32:13:16
Оригинал временного кода : Group of pictures header
Размер потока : 953 Мбайт (93%)
Аудио
Идентификатор : 189 (0xBD)-128 (0x80)
Формат : AC-3
Формат/Информация : Audio Coding 3
Расширение режима : CM (complete main)
Параметр Endianness формата : Big
Режим смешивания : DVD-Video
Продолжительность : 36 м.
Вид битрейта : Постоянный
Битрейт : 192 Кбит/сек
Каналы : 2 канала
Расположение каналов : Front: L R
Частота : 48,0 КГц
Битовая глубина : 16 бит
Метод сжатия : С потерями
Задержка видео : -192 мс.
Размер потока : 50,3 Мбайт (5%)
Download / Скачать

Хотите скачать бесплатно? Зарегистрируйтесь на сайте (ссылка на регистрацию). Pirat.ca - самый быстрый торрент трекер в рунете!

Как скачивать  ·   Что такое торрент  ·   Рейтинг и ограничения

Пост 12-Дек-2014 00:14 (спустя 3 часа)

Топик был перенесен из форума Театр (Трюм) в форум Спектакли и театральные постановки
Андря
 

SarmatKumar

Морской Волк

Пост 14-Дек-2014 18:19 (спустя 2 дня 21 час)

[Q] 

Классика Лови бочку Автору респект!!!
[Профиль]  [ЛС] 

vereski ®

Лоцман

7

Пост 20-Дек-2014 11:21 (спустя 5 дней)

[Q] 

Спасибо!!!
Спасибо за бочку:)

_________________
К чёрту дверь!
Слепой Пью
(Р.Стивенсон. "Остров сокровищ")
[Профиль]  [ЛС] 
Показать сообщения:    
Ответить на тему

Текущее время: Сегодня 03:14

Часовой пояс: GMT + 4



Вы не можете начинать темы
Вы не можете отвечать на сообщения
Вы не можете редактировать свои сообщения
Вы не можете удалять свои сообщения
Вы не можете голосовать в опросах
Вы не можете прикреплять файлы к сообщениям
Вы не можете скачивать файлы

▼ Вниз