ML
     
  Уважаемый Гость!
Вы можете поддержать проект и зарегистрироваться у наших партнеров - онлайн-стратегия MyLands. При регистрации в игре Вы получите код, который сможете активировать после регистрации на pirat.ca и получить 1000 дублонов.

Ваш код:
8b752b428cf60a012c159dcae592cd1392170115
 
     

Квартет И - Ля Комедия - 2, или совсем другая история с элементами Большого Искусства (Эдуард Радзюкевич) [2006 г., Комедия, DVDRip]

Ответить на тему
 
Автор
Сообщение

Пост 29-Окт-2011 17:26

[Q] 

ev5

Морской Волк

Квартет И - Ля Комедия - 2, или совсем другая история с элементами Большого Искусства
Год выпуска: 2006
Страна: Россия
Жанр: Комедия
Продолжительность: 02:32:58
Режиссер: Эдуард Радзюкевич
В ролях: Камиль Ларин, Александр Демидов, Леонид Барац, Эмилия Савельева, Ростислав Хаит, Эмилия Савельева, Анна Касаткина, Эдуард Радзюкевич, Александр Жигалкин
Описание: Произведение в 2-х частях для театра с оркестром по мотивам комедии Эжена Лабиша "Милейший Селимар"
D:\torrent\film_11\Квартет И\Квартет И - Ля Комедия - 2, или совсем другая история с элементами Большого Искусства.avi
General
Complete name : D:\torrent\film_11\Квартет И\Квартет И - Ля Комедия - 2, или совсем другая история с элементами Большого Искусства.avi
Format : AVI
Format/Info : Audio Video Interleave
File size : 1.37 GiB
Duration : 2h 32mn
Overall bit rate : 1 279 Kbps
Writing application : VirtualDubMod 1.5.4.1 (build 2178/release)
Writing library : VirtualDubMod build 2178/release
Video #0
ID : 0
Format : MPEG-4 Visual
Format profile : [email protected]
Format settings, BVOP : Yes
Format settings, QPel : No
Format settings, GMC : No warppoints
Format settings, Matrix : Custom
Codec ID : XVID
Codec ID/Hint : XviD
Duration : 2h 32mn
Bit rate : 1 143 Kbps
Width : 448 pixels
Height : 336 pixels
Display aspect ratio : 4:3
Frame rate : 25.000 fps
Resolution : 24 bits
Colorimetry : 4:2:0
Scan type : Progressive
Bits/(Pixel*Frame) : 0.304
Stream size : 1.22 GiB (89%)
Writing library : XviD 1.2.0.dev47 (UTC 2006-11-01)
Audio #1
ID : 1
Format : MPEG Audio
Format version : Version 1
Format profile : Layer 3
Codec ID : 55
Codec ID/Hint : MP3
Duration : 2h 32mn
Bit rate mode : Constant
Bit rate : 128 Kbps
Channel(s) : 2 channels
Sampling rate : 48.0 KHz
Resolution : 16 bits
Stream size : 140 MiB (10%)
Alignment : Aligned on interleaves
Interleave, duration : 80 ms (2.00 video frames)
Interleave, preload duration : 504 ms
Writing library : LAME3.97
Encoding settings : -m j -V 4 -q 2 -lowpass 17 -b 128
Language : Russian
Качество: DVDRip
Формат: AVI
Видео кодек: DivX
Аудио кодек: MP3
Видео: 448x336 (1.33:1), 25 fps, XviD build 47 ~1143 kbps avg, 0.30 bit/pixel
Аудио: 48 kHz, MPEG Layer 3, 2 ch, ~128.00 kbps avg


Download / Скачать

Хотите скачать бесплатно? Зарегистрируйтесь на сайте (ссылка на регистрацию). Pirat.ca - самый быстрый торрент трекер в рунете!

Как скачивать  ·   Что такое торрент  ·   Рейтинг и ограничения



Последний раз редактировалось: ev5 (2011-11-09 15:13), всего редактировалось 1 раз

Amon

Корсар

Пост 30-Окт-2011 00:09 (спустя 6 часов)

[Q] 

Ну, посмотрим Ж)
[Профиль]  [ЛС] 

Пост 02-Ноя-2011 14:43 (спустя 3 дня)

Топик был перенесен из форума Театр в форум Спектакли и театральные постановки

Чужая
 

Filimonia

Корсар

Пост 05-Ноя-2011 18:07 (спустя 6 дней)

[Q] 

Спасибо за интересное кино!
Перезалейте пожалуйста Вашу сраздачу:
Внимание! Просьба перезалить торрент файлы за последнюю неделю.
[Профиль]  [ЛС] 

ivan836

Морской Волк

Пост 20-Фев-2012 17:56 (спустя 3 месяца 14 дней)

[Q] 

Большое спасибо!!!! +
[Профиль]  [ЛС] 

Billy_Bons

Шкипер

Пост 13-Июн-2012 21:28 (спустя 3 месяца 22 дня)

[Q] 

Спасибо!!!
[Профиль]  [ЛС] 

survol

Юнга

Пост 10-Мар-2014 16:11 (спустя 1 год 8 месяцев)

[Q] 

Ну теперь посмотрю. Здорово.
[Профиль]  [ЛС] 

Гатар

Морской Волк

130

Пост 22-Май-2014 22:39 (спустя 2 месяца 12 дней)

[Q] 

Автору респект!!! Посмотрим, посмотрим.
[Профиль]  [ЛС] 
Показать сообщения:    
Ответить на тему

Текущее время: Сегодня 06:19

Часовой пояс: GMT + 4



Вы не можете начинать темы
Вы не можете отвечать на сообщения
Вы не можете редактировать свои сообщения
Вы не можете удалять свои сообщения
Вы не можете голосовать в опросах
Вы не можете прикреплять файлы к сообщениям
Вы не можете скачивать файлы

▼ Вниз