ML
     
  Уважаемый Гость!
Вы можете поддержать проект и зарегистрироваться у наших партнеров - онлайн-стратегия MyLands. При регистрации в игре Вы получите код, который сможете активировать после регистрации на pirat.ca и получить 1000 дублонов.

Ваш код:
0af2e2107bc9b5dd5ac2c09f9fc25e1a77c43887
 
     

Миллион за улыбку / Государственный академический театр им. Моссовета (Инна Данкман, Ирина Анисимова-Вульф) [1988 г., лирическая комедия, TVRip] + Original (Rus)

Ответить на тему
 
Автор
Сообщение

Пост 19-Мар-2016 01:58

[Q] 

somik

Легенда

-Миллион за улыбку / Государственный академический театр им. Моссовета-- Страна: СССР
Жанр: лирическая комедия
Год выпуска: 1988 г.
Продолжительность: 02:08:38
Перевод: Не требуется
Оригинальный аудиопоток: русский
Cубтитры: отсутствуют
Режиссер: Инна Данкман, Ирина Анисимова-Вульф-В ролях: Константин Михайлов, Людмила Шапошникова, Евгений Стеблов, Сергей Цейц, Елена Кайранская, Наталья Ткачёва-Описание: Архитектор Виталий Николаевич Карташев влюбляется в женщину намного моложе себя. О его увлечении узнает жена Ольга и решает воздействовать на любвеобильного мужа весьма оригинальным способом – уговаривает друга семьи, Евгения Михайловича Бабкина, изобразить с ней романтические отношения. Ситуация осложняется еще и тем, что в ту же девушку влюблен младший брат Карташева.
Все любовные коллизии проходят на фоне борьбы за минимализм в архитектуре. Так как за якобы ненужные украшательства фасада в проекте дома, разработанного Карташевым, необходимо заплатить миллион рублей, а эти излишества нефункциональны и вызывают только улыбку, пьеса называется «Миллион за улыбку».-Качество видео: TVRip
Контейнер: AVI
Видео кодек: XviD
Аудио кодек: MP3
Видео: Video: 640x480 (1.33:1), 25 fps, XviD MPEG-4 ~1280 kbps avg, 0.17 bit/pixel
Аудио: Audio: 48 kHz, MPEG Layer 3, 2 ch, ~128.00 kbps avg
Формат : AVI
Формат/Информация : Audio Video Interleave
Размер файла : 1,27 Гбайт
Продолжительность : 2 ч. 8 м.
Общий поток : 1418 Кбит/сек
Библиотека кодирования : VirtualDub-MPEG2 build 24600/release
Видео
Идентификатор : 0
Формат : MPEG-4 Visual
Профиль формата : Advanced [email protected]
Параметр BVOP формата : 2
Параметр QPel формата : Нет
Параметр GMC формата : Без точки перехода
Параметр матрицы формата : Default (H.263)
Режим смешивания : Сжатый битовый поток
Идентификатор кодека : XVID
Идентификатор кодека/Подсказка : XviD
Продолжительность : 2 ч. 8 м.
Битрейт : 1281 Кбит/сек
Ширина : 640 пикселей
Высота : 480 пикселей
Соотношение сторон : 4:3
Частота кадров : 25,000 кадров/сек
Цветовое пространство : YUV
Субдискретизация насыщенности : 4:2:0
Битовая глубина : 8 бит
Тип развёртки : Прогрессивная
Метод сжатия : С потерями
Бит/(Пиксели*Кадры) : 0.167
Размер потока : 1,15 Гбайт (90%)
Библиотека кодирования : XviD 1.2.0.dev47 (UTC 2006-11-01)
Аудио
Идентификатор : 1
Формат : MPEG Audio
Версия формата : Version 1
Профиль формата : Layer 3
Режим : Joint stereo
Расширение режима : MS Stereo
Идентификатор кодека : 55
Идентификатор кодека/Подсказка : MP3
Продолжительность : 2 ч. 8 м.
Вид битрейта : Постоянный
Битрейт : 128 Кбит/сек
Каналы : 2 канала
Частота : 48,0 КГц
Метод сжатия : С потерями
Размер потока : 118 Мбайт (9%)
Выравнивание : Разделение по промежуткам
Продолжительность промежутка : 40 мс. (1,00 видеокадр)
Время предзагрузки промежутка : 500 мс.
Чудо, добрый, веселый спектакль, любимый много лет. Шапошникова - королева. Все прекрасны.
Сугубо личное мнение - Кайранская с ее Ниночкой немножко за форматом.
Пьеса очень даже неплоха, главное в ней - люди, а не явления.
Хорошие, интересные, значительные люди.
1961. Изначально главные роли играли Плятт и Марецкая, Анатолий Адоскин. А так как постановка шла долгие годы, то состав актеров тоже претерпевал изменения.
Была еще радиоверсия. Так в ней тоже есть отличия от телезаписи в тексте.
Мне, признаться, постановка тоже нравится. Видимо, такова сила актерского мастерства. Когда Цейц и Шапошникова пикируются, с неповторимыми интонациями произносят "кузюзенька" и "завозились", невозможно сдержать улыбку.
Поэтому я не могу смотреть современные постановки даже старых пьес - все не в ту степь, простите. Слова отдельно, действие отдельно, эмоции вообще отсутствуют или не соответствуют моменту. И пластика, как верно подмечено, девушек в джинсах, а не дам в кринолинах. И хочется сказать знаменитое: "Не верю!"
Download / Скачать

Хотите скачать бесплатно? Зарегистрируйтесь на сайте (ссылка на регистрацию). Pirat.ca - самый быстрый торрент трекер в рунете!

Как скачивать  ·   Что такое торрент  ·   Рейтинг и ограничения

somik ®

Легенда

26965

Пост 19-Мар-2016 02:01 (спустя 3 минуты)

[Q] 

Качество, естественно, не очень! Но хочется смотреть... На любителя

_________________
Всё когда-нибудь уже было... В интернете!
[Профиль]  [ЛС] 

Пост 19-Мар-2016 09:35 (спустя 7 часов)

Топик был перенесен из форума Театр (Трюм) в форум Спектакли и театральные постановки
erchine
 
Показать сообщения:    
Ответить на тему

Текущее время: Сегодня 00:09

Часовой пояс: GMT + 4



Вы не можете начинать темы
Вы не можете отвечать на сообщения
Вы не можете редактировать свои сообщения
Вы не можете удалять свои сообщения
Вы не можете голосовать в опросах
Вы не можете прикреплять файлы к сообщениям
Вы не можете скачивать файлы

▼ Вниз