ML
     
  Уважаемый Гость!
Вы можете поддержать проект и зарегистрироваться у наших партнеров - онлайн-стратегия MyLands. При регистрации в игре Вы получите код, который сможете активировать после регистрации на pirat.ca и получить 1000 дублонов.

Ваш код:
0fcd44bd35319f69313aa6e53b31c51cbff1c942
 
     

"Театр" по пьесе Майкла Фрейна "Noises Off" Перевод М. Рощина / Севастопольский Академический Русский Драматический театр им. А.В. Луначарского (В. Петров) [1988 г., Комедия, TVRip]

Ответить на тему
 
Автор
Сообщение

Пост 30-Апр-2016 20:10

[Q] 

somik

Легенда

-"Театр" по пьесе Майкла Фрейна "Noises Off" Перевод М. Рощина / Севастопольский Академический Русский Драматический театр им. А.В. Луначарского-- Страна: СССР
Жанр: Комедия
Год выпуска: 1988 г.
Продолжительность: 02:11:36
Перевод: Не требуется
Cубтитры: отсутствуют
Режиссер: В. Петров-В ролях: Дотти - Л. Кара-Гяур, Гарри - Е. Смирнов, Брук - Ю. Нестранская, Фредерик - С. Мезенцев, Белинда - О. Разумовская, Селздон - Б. Чернокульский, Режиссер - В. Петров, Поппи - М. Евсеева, Тим - Б. Некрасов-Описание: О буднях старой английской бродячей труппы, о славном племени лицедеев.
Картина I - Актеры частной английской труппы репетируют незатейливую комедию "Любовь и сардины". Ночная репетиция перед премьерой. Артисты плохо знают текст и путают мизансцены, режиссер на грани нервного срыва. Однако спектакль состоится при "любой погоде".
Картина II - Месяц спустя. Гастрольный тур в самом разгаре. Дневной спектакль в маленьком провинциальном городке. "Вид сзади" - из-за кулис. Зритель видит все, что происходит за кулисами во время действия. А это зрелище не для слабонервных. Склоки, интриги, любовные перипетии.
Картина III - Три месяца спустя. Гастроли подходят к концу. Ежедневные показы и частые переезды вымотали актеров до предела. Труппа на грани войны, актеры ненавидят всё и вся. Но в зале зритель, и они выходят на сцену и играют спектакль. Однако, то, что происходит на сцене, спектаклем назвать трудно.
Заглянем за занавес, подсмотрим в щелочку, восхитимся, ужаснемся и еще раз признаемся Театру в любви.-Сэмпл: http://multi-up.com/1099881
Качество видео: TVRip
Контейнер: AVI
Видео кодек: XviD
Аудио кодек: MP3
Видео: 696x568 (1.23:1), 25 fps, XviD build 9 ~1500 kbps avg, 0.15 bit/pixel
Аудио: 48 kHz, MPEG Layer 3, 2 ch, ~128.00 kbps avg
Формат : AVI
Формат/Информация : Audio Video Interleave
Размер файла : 1,51 Гбайт
Продолжительность : 2 ч. 11 м.
Общий поток : 1639 Кбит/сек
Название фильма : Teatr.1988.TVrip.Xvid.[pirat.ca]
Программа кодирования : MediaCoder 0.6
Видео
Идентификатор : 0
Формат : MPEG-4 Visual
Профиль формата : [email protected]
Параметр BVOP формата : Нет
Параметр QPel формата : Нет
Параметр GMC формата : Без точки перехода
Параметр матрицы формата : Default (H.263)
Идентификатор кодека : XVID
Идентификатор кодека/Подсказка : XviD
Продолжительность : 2 ч. 11 м.
Битрейт : 1501 Кбит/сек
Ширина : 696 пикселей
Высота : 568 пикселей
Соотношение сторон : 1,225
Частота кадров : 25,000 кадров/сек
Цветовое пространство : YUV
Субдискретизация насыщенности : 4:2:0
Битовая глубина : 8 бит
Тип развёртки : Прогрессивная
Метод сжатия : С потерями
Бит/(Пиксели*Кадры) : 0.152
Размер потока : 1,38 Гбайт (92%)
Библиотека кодирования : XviD 0.0.09 (UTC 2003-03-25)
Аудио
Идентификатор : 1
Формат : MPEG Audio
Версия формата : Version 1
Профиль формата : Layer 3
Режим : Joint stereo
Расширение режима : MS Stereo
Идентификатор кодека : 55
Идентификатор кодека/Подсказка : MP3
Продолжительность : 2 ч. 11 м.
Вид битрейта : Постоянный
Битрейт : 128 Кбит/сек
Каналы : 2 канала
Частота : 48,0 КГц
Метод сжатия : С потерями
Размер потока : 120 Мбайт (8%)
Выравнивание : Разделение по промежуткам
Продолжительность промежутка : 40 мс. (1,00 видеокадр)
Время предзагрузки промежутка : 500 мс.
Библиотека кодирования : LAMEЄЄ
Это лучшая театральная постановка, что я видел за всю жизнь! somik
Это самая известная и популярная комедия Майкла Фрейна впервые была поставлена в Лондоне в 1982 г.
Годом позже состоялась бродвейская премьера.
С тех пор, вот уже четверть века, пьеса не сходит со сцен театров по обе стороны Атлантики.
По пьесе Майкла Фрейна
Перевод М. Рощина
Другое название: "Шум за сценой"
Download / Скачать

Хотите скачать бесплатно? Зарегистрируйтесь на сайте (ссылка на регистрацию). Pirat.ca - самый быстрый торрент трекер в рунете!

Как скачивать  ·   Что такое торрент  ·   Рейтинг и ограничения



Последний раз редактировалось: somik (2016-05-01 09:05), всего редактировалось 1 раз

somik ®

Легенда

26928

Пост 30-Апр-2016 20:15 (спустя 4 минуты)

[Q] 

Релиз для любителей советского театра. Современных критиканов просьба не беспокоиться! aa На любителя

_________________
Всё когда-нибудь уже было... В интернете!
[Профиль]  [ЛС] 

Пост 01-Май-2016 18:40 (спустя 22 часа)

Топик был перенесен из форума Театр (Трюм) в форум Спектакли и театральные постановки
erchine
 
Показать сообщения:    
Ответить на тему

Текущее время: Сегодня 02:12

Часовой пояс: GMT + 4



Вы не можете начинать темы
Вы не можете отвечать на сообщения
Вы не можете редактировать свои сообщения
Вы не можете удалять свои сообщения
Вы не можете голосовать в опросах
Вы не можете прикреплять файлы к сообщениям
Вы не можете скачивать файлы

▼ Вниз