ML
     
  Уважаемый Гость!
Вы можете поддержать проект и зарегистрироваться у наших партнеров - онлайн-стратегия MyLands. При регистрации в игре Вы получите код, который сможете активировать после регистрации на pirat.ca и получить 1000 дублонов.

Ваш код:
822959f93c00d34653763d5bbf9ee9a7134af98a
 
     

Кошка на раскаленной крыше / Московский академический ордена Трудового Красного Знамени театр имени Вл. Маяковского (Андрей Гончаров) [1989 г., драма, TVRip]

Ответить на тему
 
Автор
Сообщение

Пост 16-Июн-2016 19:34

[Q] 

somik

Легенда

-Кошка на раскаленной крыше / Московский академический ордена Трудового Красного Знамени театр имени Вл. Маяковского-- Страна: СССР
Жанр: драма
Год выпуска: 1989 г.
Продолжительность: 02:56:28
Перевод: Не требуется
Cубтитры: отсутствуют
Режиссер: Андрей Гончаров-В ролях: Маргарет - Алла Балтер, Брик - Александр Мартынов, Мэй - Светлана Немоляева, Большая Ма - Татьяна Карпова, Большой Па - Армен Джигарханян, священник Тукер - Александр Шворин, Гупер - Эммануил Виторган, доктор Бау - Николай Прокофьев, Лэси - Ольга Блажевич, Зуки - Анатолий Садчиков, дети: Аня Никулина, Коля Карпов, Юра, Маша, Дима Скалдины-Описание: По одноименной пьесе Теннесси Уильямса (перевод Виталия Вульфа и Александра Доршевича) в постановке Театра имени Вл.Маяковского
Тяжелая болезнь богатого плантатора Большого Па со всей остротой ставит вопрос о наследстве. Любимый сын Брик опустился, бездетен и не помышляет о наследстве. У второго сына Гупера - много детей, и он мечтает о богатстве. Жена Брика - Маргарет - изменявшая мужу и виноватая в том, что он запил, отчаянно борется за наследство. Она объявляет, что ждет ребенка, убеждая мужа, что любит его.-Сэмпл: http://multi-up.com/1106131
Качество видео: TVRip
Контейнер: MKV
Видео кодек: MPEG4 AVC
Аудио кодек: AC3
Видео: 1769 Кбит/сек, 768х576, 25,000 кадров/сек
Аудио: 48,0 КГц, 2 канала, 192 Кбит/сек
Общее
Уникальный идентификатор : 168348648403719580577546155723716462494 (0x7EA6C532C2870C1E037BA147C20E879E)
Полное имя : C:\герои 7\Koshka na raskaljonnoj kryshe.[pirat.ca]\Кошка на раскалённой крыше (1-я серия) (Россия К).mkv
Формат : Matroska
Версия формата : Version 2
Размер файла : 1,00 Гбайт
Продолжительность : 1 ч. 11 м.
Общий поток : 2001 Кбит/сек
Программа кодирования : Lavf51.12.1
Библиотека кодирования : Lavf51.12.1
Видео
Идентификатор : 1
Формат : AVC
Формат/Информация : Advanced Video Codec
Профиль формата : [email protected]
Параметр CABAC формата : Нет
Параметр ReFrames формата : 1 кадр
Параметр GOP формата : M=1, N=12
Идентификатор кодека : V_MPEG4/ISO/AVC
Продолжительность : 1 ч. 11 м.
Битрейт : 1769 Кбит/сек
Ширина : 768 пикселей
Высота : 576 пикселей
Соотношение сторон : 4:3
Режим частоты кадров : Постоянный
Частота кадров : 25,000 кадров/сек
Цветовое пространство : YUV
Субдискретизация насыщенности : 4:2:0
Битовая глубина : 8 бит
Тип развёртки : Прогрессивная
Бит/(Пиксели*Кадры) : 0.160
Размер потока : 909 Мбайт (88%)
Default : Да
Forced : Нет
Аудио
Идентификатор : 2
Формат : AC-3
Формат/Информация : Audio Coding 3
Расширение режима : CM (complete main)
Параметр Endianness формата : Big
Идентификатор кодека : A_AC3
Продолжительность : 1 ч. 11 м.
Вид битрейта : Постоянный
Битрейт : 192 Кбит/сек
Каналы : 2 канала
Расположение каналов : Front: L R
Частота : 48,0 КГц
Частота кадров : 31,250 кадров/сек (1536 spf)
Битовая глубина : 32 бит
Метод сжатия : С потерями
Размер потока : 98,6 Мбайт (10%)
Default : Да
Forced : Нет
Общее
Уникальный идентификатор : 168348648403719580577546155723716462494 (0x7EA6C532C2870C1E037BA147C20E879E)
Полное имя : C:\герои 7\Koshka na raskaljonnoj kryshe.[pirat.ca]\Кошка на раскалённой крыше (1-я серия) (Россия К).mkv
Формат : Matroska
Версия формата : Version 2
Размер файла : 1,00 Гбайт
Продолжительность : 1 ч. 11 м.
Общий поток : 2001 Кбит/сек
Программа кодирования : Lavf51.12.1
Библиотека кодирования : Lavf51.12.1
Видео
Идентификатор : 1
Формат : AVC
Формат/Информация : Advanced Video Codec
Профиль формата : [email protected]
Параметр CABAC формата : Нет
Параметр ReFrames формата : 1 кадр
Параметр GOP формата : M=1, N=12
Идентификатор кодека : V_MPEG4/ISO/AVC
Продолжительность : 1 ч. 11 м.
Битрейт : 1769 Кбит/сек
Ширина : 768 пикселей
Высота : 576 пикселей
Соотношение сторон : 4:3
Режим частоты кадров : Постоянный
Частота кадров : 25,000 кадров/сек
Цветовое пространство : YUV
Субдискретизация насыщенности : 4:2:0
Битовая глубина : 8 бит
Тип развёртки : Прогрессивная
Бит/(Пиксели*Кадры) : 0.160
Размер потока : 909 Мбайт (88%)
Default : Да
Forced : Нет
Аудио
Идентификатор : 2
Формат : AC-3
Формат/Информация : Audio Coding 3
Расширение режима : CM (complete main)
Параметр Endianness формата : Big
Идентификатор кодека : A_AC3
Продолжительность : 1 ч. 11 м.
Вид битрейта : Постоянный
Битрейт : 192 Кбит/сек
Каналы : 2 канала
Расположение каналов : Front: L R
Частота : 48,0 КГц
Частота кадров : 31,250 кадров/сек (1536 spf)
Битовая глубина : 32 бит
Метод сжатия : С потерями
Размер потока : 98,6 Мбайт (10%)
Default : Да
Forced : Нет
Download / Скачать

Хотите скачать бесплатно? Зарегистрируйтесь на сайте (ссылка на регистрацию). Pirat.ca - самый быстрый торрент трекер в рунете!

Как скачивать  ·   Что такое торрент  ·   Рейтинг и ограничения

Пост 16-Июн-2016 23:31 (спустя 3 часа)

Топик был перенесен из форума Театр (Трюм) в форум Спектакли и театральные постановки
Андря
 
Показать сообщения:    
Ответить на тему

Текущее время: Сегодня 05:59

Часовой пояс: GMT + 4



Вы не можете начинать темы
Вы не можете отвечать на сообщения
Вы не можете редактировать свои сообщения
Вы не можете удалять свои сообщения
Вы не можете голосовать в опросах
Вы не можете прикреплять файлы к сообщениям
Вы не можете скачивать файлы

▼ Вниз