Уважаемый Гость!
Вы можете поддержать проект и зарегистрироваться у наших партнеров - онлайн-стратегия MyLands. При регистрации в игре Вы получите код, который сможете активировать после регистрации на pirat.ca и получить 1000 дублонов.

Ваш код:
01eed4effbc69abc4ec0ea5afc111f2d3fe3a29e
 
     

Возмутитель спокойствия / Московский театр комедии (телеспектакль) (Александр Яцко, Игорь Волосецский, Алексей Горовацкий) [2016 г., Теле-спектакль, комедия в стихах, SATRip] + Original (Rus)

Ответить на тему
 
Автор
Сообщение

Пост 25-Дек-2016 22:20

[Q] 

somik

-Возмутитель спокойствия / Московский театр комедии (телеспектакль)-- Страна: Россия, ООО "Голд-Медиум", ГТРК "Культура"
Жанр: Теле-спектакль, комедия в стихах
Год выпуска: 2016 г.
Продолжительность: 01:09:32
Перевод: Не требуется
Оригинальный аудиопоток: русский
Cубтитры: отсутствуют
Режиссер: Александр Яцко, Игорь Волосецский, Алексей Горовацкий-В ролях: Леонид Ярмольник, Александр Яцко, Александр Адабашьян, Вениамин Смехов, Алла Демидова, Михаил Полицеймако, Михаил Ефремов, Александр Розенбаум, Владимир Качан, Борис Галкин-Описание: По сказке для взрослых Леонида Филатова "Возмутитель спокойствия" о приключениях достославного Ходжи Насреддина. Спектакль снят в феерической среде современного мегаполиса.-Сэмпл: http://multi-up.com/1132628
Качество видео: SATRip
Контейнер: AVI
Видео кодек: XviD
Аудио кодек: AC3
Видео: 720x400 (1.80:1), 25 fps, XviD build 73 1598 kbps avg, 0.22 bit/pixel
Аудио: 48 kHz, AC3 Dolby Digital, 2/0 (L,R) ch, 192 kbps
Общее
Полное имя : J:\Спектакль - Возмутитель спокойствия (2016) SATRip\Леонид Филатов.Возмутитель спокойствия.2016.SATRip.[pirat.ca].avi
Формат : AVI
Формат/Информация : Audio Video Interleave
Размер файла : 896 Мбайт
Продолжительность : 1 ч. 9 м.
Общий поток : 1801 Кбит/сек
Программа кодирования : VirtualDubMod 1.5.10.3 | www.virtualdub-fr.org || (build 2550/release)
Библиотека кодирования : VirtualDubMod build 2550/release
Видео
Идентификатор : 0
Формат : MPEG-4 Visual
Профиль формата : Advanced [email protected]
Параметр BVOP формата : 1
Параметр QPel формата : Нет
Параметр GMC формата : Без точки перехода
Параметр матрицы формата : Выборочная
Идентификатор кодека : XVID
Идентификатор кодека/Подсказка : XviD
Продолжительность : 1 ч. 9 м.
Битрейт : 1599 Кбит/сек
Ширина : 720 пикселей
Высота : 400 пикселей
Соотношение сторон : 16:9
Частота кадров : 25,000 кадров/сек
Цветовое пространство : YUV
Субдискретизация насыщенности : 4:2:0
Битовая глубина : 8 бит
Тип развёртки : Прогрессивная
Метод сжатия : С потерями
Бит/(Пиксели*Кадры) : 0.222
Размер потока : 795 Мбайт (89%)
Библиотека кодирования : XviD 73
Аудио
Идентификатор : 1
Формат : AC-3
Формат/Информация : Audio Coding 3
Расширение режима : CM (complete main)
Параметр Endianness формата : Big
Идентификатор кодека : 2000
Продолжительность : 1 ч. 9 м.
Вид битрейта : Постоянный
Битрейт : 192 Кбит/сек
Каналы : 2 канала
Расположение каналов : Front: L R
Частота : 48,0 КГц
Частота кадров : 31,250 кадров/сек (1536 spf)
Метод сжатия : С потерями
Размер потока : 95,5 Мбайт (11%)
Выравнивание : Разделение по промежуткам
Продолжительность промежутка : 40 мс. (1,00 видеокадр)
Время предзагрузки промежутка : 500 мс.
Download / Скачать

Хотите скачать бесплатно? Зарегистрируйтесь на сайте (ссылка на регистрацию). Pirat.ca - самый быстрый торрент трекер в рунете!

Как скачивать  ·   Что такое торрент  ·   Рейтинг и ограничения

nikans

Морской Волк

Пост 15-Янв-2017 13:21 (спустя 20 дней)

[Q] 

Спасибо........
[Профиль]  [ЛС] 
Показать сообщения:    
Ответить на тему

Текущее время: Сегодня 14:07

Часовой пояс: GMT + 4



Вы не можете начинать темы
Вы не можете отвечать на сообщения
Вы не можете редактировать свои сообщения
Вы не можете удалять свои сообщения
Вы не можете голосовать в опросах
Вы не можете прикреплять файлы к сообщениям
Вы не можете скачивать файлы

▼ Вниз