Уважаемый Гость!
Вы можете поддержать проект и зарегистрироваться у наших партнеров - онлайн-стратегия MyLands. При регистрации в игре Вы получите код, который сможете активировать после регистрации на pirat.ca и получить 1000 дублонов.

Ваш код:
dd1f78dd903933c259257f996cd6b23ecc0278ac
 
     

Не будите мадам / Театр им. Моссовета (Юрий Еремин) [2003 г., Спектакль, драма, TVRip] + Original (Rus)

Ответить на тему
 
Автор
Сообщение

Пост 12-Фев-2017 14:03

[Q] 

somik

-Не будите мадам / Театр им. Моссовета-- Страна: Россия
Жанр: Спектакль, драма
Год выпуска: 2003 г.
Продолжительность: 02:05:12
Перевод: Не требуется
Оригинальный аудиопоток: русский
Cубтитры: отсутствуют
Режиссер: Юрий Еремин-В ролях: Георгий Тараторкин, Татьяна Бестаева, Ольга Остроумова, Евгения Крюкова, Александр Яцко, Александр Леньков, Марина Кондратьева, Дмитрий Журавлев, Вячеслав Бутенко, Александр Бобровский-Описание: та пьеса Жана Ануя о судьбе человека, целиком посвятившего себя театру. Ее герой - режиссер Жюльен Палюш - принципиален во всем: и в творчестве, и в жизни; формула «гений и беспутство» - не для него. Его фантастическая увлеченность новыми театральными идеями притягивает к нему самых разных людей. Часто в его памяти возникают образы прежних спутников жизни, они переплетаются с судьбами живых и отбрасывают тень на настоящее, придавая ему неожиданный смысл.-Сэмпл: http://multi-up.com/1140324
Качество видео: TVRip
Контейнер: AVI
Видео кодек: DivX
Аудио кодек: MP3
Видео: 640x480 (1.33:1), 25 fps, DivX Codec 6.2.1, 2496 kbps avg, 0.33 bit/pixel
Аудио: 44.100 kHz, MPEG Layer 3, 1 ch, 63.70 kbps avg
Общее
Полное имя : J:\Не будите мадам (2003) TVRip\Ne budite madam.2003.DivX.TVRip.[pirat.ca].avi
Формат : AVI
Формат/Информация : Audio Video Interleave
Профиль формата : OpenDML
Размер файла : 2,25 Гбайт
Продолжительность : 2 ч. 5 м.
Общий поток : 2567 Кбит/сек
Библиотека кодирования : VirtualDub build 18160/release
Видео
Идентификатор : 0
Формат : MPEG-4 Visual
Параметр BVOP формата : Нет
Параметр QPel формата : Нет
Параметр GMC формата : Без точки перехода
Параметр матрицы формата : Default (H.263)
Идентификатор кодека : DX50
Идентификатор кодека/Подсказка : DivX 5
Продолжительность : 2 ч. 5 м.
Битрейт : 2491 Кбит/сек
Ширина : 640 пикселей
Высота : 480 пикселей
Соотношение сторон : 4:3
Частота кадров : 25,000 кадров/сек
Цветовое пространство : YUV
Субдискретизация насыщенности : 4:2:0
Битовая глубина : 8 бит
Тип развёртки : Прогрессивная
Метод сжатия : С потерями
Бит/(Пиксели*Кадры) : 0.324
Размер потока : 2,18 Гбайт (97%)
Библиотека кодирования : DivX 6.2.1 (UTC 2006-04)
Аудио
Идентификатор : 1
Формат : MPEG Audio
Версия формата : Version 1
Профиль формата : Layer 3
Идентификатор кодека : 55
Идентификатор кодека/Подсказка : MP3
Продолжительность : 2 ч. 5 м.
Вид битрейта : Постоянный
Битрейт : 64,0 Кбит/сек
Каналы : 1 канал
Частота : 44,1 КГц
Метод сжатия : С потерями
Размер потока : 57,0 Мбайт (2%)
Выравнивание : Разделение по промежуткам
Продолжительность промежутка : 40 мс. (1,00 видеокадр)
Время предзагрузки промежутка : 500 мс.
4 февраля 2017 года скончался советский и российский актер театра и кино Георгий Тараторкин. Народному артисту РСФСР исполнилось 72 года. Он умер после продолжительной болезни. Сообщение о его смерти и глубокие соболезнования появились на сайте театра Моссовета.
... Актера знают также по ролям Стрельцова в «Они сражались за Родину», Ивана в «Братьях Карамазовых», по фильму «С чего начинается Родина»
Download / Скачать

Хотите скачать бесплатно? Зарегистрируйтесь на сайте (ссылка на регистрацию). Pirat.ca - самый быстрый торрент трекер в рунете!

Как скачивать  ·   Что такое торрент  ·   Рейтинг и ограничения

Показать сообщения:    
Ответить на тему

Текущее время: Сегодня 23:33

Часовой пояс: GMT + 4



Вы не можете начинать темы
Вы не можете отвечать на сообщения
Вы не можете редактировать свои сообщения
Вы не можете удалять свои сообщения
Вы не можете голосовать в опросах
Вы не можете прикреплять файлы к сообщениям
Вы не можете скачивать файлы

▼ Вниз