ML
     
  Уважаемый Гость!
Вы можете поддержать проект и зарегистрироваться у наших партнеров - онлайн-стратегия MyLands. При регистрации в игре Вы получите код, который сможете активировать после регистрации на pirat.ca и получить 1000 дублонов.

Ваш код:
a6d1ef7ff63e237add5a4c8b21d8aa937c5e9b4b
 
     

Про Федота-стрельца, удалого молодца (З. Алиева) [1988 г., моноспектакль, DVD5]

Ответить на тему
 
Автор
Сообщение

Пост 06-Ноя-2011 04:07

[Q] 

AnatoliyPnew

Лоцман

Про Федота-стрельца, удалого молодца (З. Алиева)
Год выпуска: 1988
Производство: ЦТ СССР
Жанр: моноспектакль
Продолжительность: 00:56:00
Оригинальный аудиопоток: Русский
Режиссер: З. Алиева
В ролях: Леонид Филатов
Доп. информация: Полная реставрация изображения и звука
Описание: Моноспектакль Леонида Филатова настоящая народная сказка. Она разошлась пословицами, которые произносят, не зная, что цитируют Филатова. Это сказка блистательно написана поэтом Леонидом Филатовым и не менее блистательно рассказана актером Леонидом Филатовым. Его произведения, искрометные и живые, не перестают смешить и восхищать нас, a Леонид Филатов навсегда вошел в историю российского искусства.
Источник/Качество: DVD5
Формат: DVD Video
Видео кодек: MPEG2
Аудио кодек: AC3
Видео: PAL 4:3, MPEG Video2, (720x576) VBR 7770 Кбит/сек, 25,000 кадр/сек
Аудио: Russian (Dolby AC3, 2 ch, 224 Кбит/сек, 48,0 КГц),
Общее
Полное имя : про Федота\VIDEO_TS\VTS_02_1.VOB
Формат : MPEG-PS
Размер файла : 1024 Мбайт
Продолжительность : 17 м.
Общий поток : 8156 Кбит/сек
Видео
Идентификатор : 224 (0xE0)
Формат : MPEG Video
Версия формата : Version 2
Профиль формата : [email protected]
Параметр BVOP формата : Да
Параметр матрицы формата : Выборочная
Продолжительность : 17 м.
Битрейт : 7770 Кбит/сек
Максимальный битрейт : 7800 Кбит/сек
Ширина : 720 пикселей
Высота : 576 пикселей
Соотношение сторон : 4:3
Частота кадров : 25,000 кадров/сек
Стандарт вещания : PAL
Цветовое пространство : YUV
Субдискретизация насыщенности : 4:2:0
Битовая глубина : 8 бит
Тип развёртки : Чересстрочная
Порядок развёртки : Нижнее поле первое
Метод сжатия : С потерями
Бит/(Пиксели*Кадры) : 0.749
Размер потока : 975 Мбайт (95%)
Аудио
Идентификатор : 189 (0xBD)-128 (0x80)
Формат : AC-3
Формат/Информация : Audio Coding 3
Расширение режима : CM (complete main)
Режим смешивания : DVD-Video
Продолжительность : 17 м.
Вид битрейта : Постоянный
Битрейт : 224 Кбит/сек
Каналы : 2 канала
Расположение каналов : Front: L R
Частота : 48,0 КГц
Битовая глубина : 16 бит
Метод сжатия : С потерями
Размер потока : 28,1 Мбайт (3%)
Меню








Download / Скачать

Хотите скачать бесплатно? Зарегистрируйтесь на сайте (ссылка на регистрацию). Pirat.ca - самый быстрый торрент трекер в рунете!

Как скачивать  ·   Что такое торрент  ·   Рейтинг и ограничения



Последний раз редактировалось: AnatoliyPnew (2011-11-27 21:11), всего редактировалось 27 раз(а)

kosyak_kpol

Лоцман

Пост 21-Мар-2012 01:10 (спустя 4 месяца 14 дней)

[Q] 

Спасибо.
[Профиль]  [ЛС] 

lavrenty

Штурман

Пост 27-Ноя-2012 21:59 (спустя 8 месяцев 6 дней)

[Q] 

спасибо огромное
[Профиль]  [ЛС] 

Skala973

Корсар

Пост 28-Дек-2012 16:39 (спустя 1 месяц)

[Q] 

Красавчег! Чудо как хорош. Только ведь после Филатова, не возможно смотреть новое постановки.
[Профиль]  [ЛС] 

Алоизий

Флибустьер

Пост 03-Сен-2013 12:40 (спустя 8 месяцев 5 дней)

[Q] 

Спасибо!!! !COOL!
[Профиль]  [ЛС] 

darkmann1980

Пост 09-Мар-2014 21:39 (спустя 6 месяцев 6 дней)

[Q] 

Да неужели ж ЭТО может еще кому-то нравиться?..
[Профиль]  [ЛС] 

Амангельды

35485

Пост 09-Мар-2014 23:09 (спустя 1 час 30 минут)

[Q] 

darkmann1980, и таки ЭТО всё еще смотрят и слушают, несмотря ни на что...
Раздающему респект!

_________________

Товарищ, верь, пройдет она,
Так называемая гласность.
И вот тогда госбезопасность
Припомнит ваши имена
Раздачи от Амангельды - ТЫНЦ
[Профиль]  [ЛС] 

ZAMOK

Корсар

Пост 30-Май-2014 21:58 (спустя 2 месяца 20 дней)

[Q] 

Спасибо!!!Представьте ЭТО кому то надо!
Автору респект!!!

_________________
Не бойся того,с чем не сталкивался.
[Профиль]  [ЛС] 

Cometa17

Пост 24-Авг-2014 21:28 (спустя 2 месяца 24 дня)

[Q] 

Спасибо!!!
Раздающему респект!
[Профиль]  [ЛС] 

kondi1

Пост 24-Авг-2014 21:52 (спустя 24 минуты)

[Q] 

!COOL!
Автору респект!!!
[Профиль]  [ЛС] 

lavrenty

Штурман

Пост 08-Дек-2014 20:18 (спустя 3 месяца 14 дней)

[Q] 

Спасибо огромное
[Профиль]  [ЛС] 

dogovor

Морской Волк

Пост 19-Янв-2015 21:24 (спустя 1 месяц 11 дней)

[Q] 

.... !COOL! ....
[Профиль]  [ЛС] 

берлин

Гроза морей

Пост 09-Фев-2015 20:40 (спустя 20 дней)

[Q] 

Слов просто нет! Филатов -это.......... СПАСИБО!!!
[Профиль]  [ЛС] 

ktest0

Корсар

33

Пост 17-Фев-2015 01:44 (спустя 7 дней)

[Q] 

РОМ В ТРЮМ !!!!
[Профиль]  [ЛС] 
Показать сообщения:    
Ответить на тему

Текущее время: Сегодня 13:37

Часовой пояс: GMT + 4



Вы не можете начинать темы
Вы не можете отвечать на сообщения
Вы не можете редактировать свои сообщения
Вы не можете удалять свои сообщения
Вы не можете голосовать в опросах
Вы не можете прикреплять файлы к сообщениям
Вы не можете скачивать файлы

▼ Вниз