ML
     
  Уважаемый Гость!
Вы можете поддержать проект и зарегистрироваться у наших партнеров - онлайн-стратегия MyLands. При регистрации в игре Вы получите код, который сможете активировать после регистрации на pirat.ca и получить 1000 дублонов.

Ваш код:
5f4e94775bc0501caff7b254e79328d304c817d9
 
     

Божественная комедия / Театр кукол "Образцова" (С.Образцов, С.Самодур) [1973 г., Комедия, DVDRip]

Ответить на тему
 
Автор
Сообщение

Пост 19-Мар-2012 00:35

[Q] 

abc7

Гроза морей

Божественная комедия / Театр кукол "Образцова"
Страна: Россия
Год выпуска: 1973
Жанр: Комедия
Продолжительность: 01:31:09
Оригинальный аудиопоток: русский
Режиссер: С.Образцов, С.Самодур
В ролях: З.Герд, С.Самодур, Н.Самошина
Описание: ''Наша "Божественная комедия" не имеет никакого отношения к бессмертному произведению Данте. Ее написал советский драматург Исидор Шток. Тема была подсказана серией веселых рисунков французского художника Жана Эффеля под названием "Сотворение мира". Эффель по-своему, остроумно и озорно, пересказал библейскую версию сотворения мира. Наш театр решил позаимствовать тот же библейский сюжет, чтобы создать ироническое и в то же время лирическое представление. В центре нашей "Божественной комедии" - история человеческого грехопадения.
Создал Бог Адама и Еву, поселил в Раю. Хорошо жилось им в Раю - и красиво, и тепло, и сытно. Одно плохо - скучно. У всех зверей, у всех птиц - дети, а у них нет, потому что безгрешны. Скучно! Съели Адам и Ева запретное яблоко. Изгнал их Бог из Рая. Трудно им стало, да зато не скучно.
А если бы не вкусили Адам с Евой запретного плода, если бы они побоялись божьего гнева?! Не родились бы у них дети, а у тех детей - свои дети. Не было бы и нас с вами. И уж конечно, не появился бы и наш спектакль.''
Качество: DVDRip
Формат: AVI
Видео кодек: XVID
Аудио кодек: AC3
Видео: XviD, 1800 Кбит/сек, 640х480, 4:3, 25,000 кадров/сек, 8 бит, 0.234 Бит/Пиксел
Аудио: C-3, 448 Кбит/сек, 6 каналов, Front: L C R, Side: L R, LFE, 48,0 КГц, 16 бит
Общее
Полное имя : Bozhestvennaya_Komediya.avi
Формат : AVI
Формат/Информация : Audio Video Interleave
Размер файла : 1,44 Гбайт
Продолжительность : 1 ч. 31 м.
Общий поток : 2257 Кбит/сек
Программа кодирования : VirtualDubMod 1.5.10.2 (build 2540/release)
Библиотека кодирования : VirtualDubMod build 2540/release
Видео
Идентификатор : 0
Формат : MPEG-4 Visual
Профиль формата : Advanced [email protected]
Параметр BVOP формата : 2
Параметр QPel формата : Нет
Параметр GMC формата : Без точки перехода
Параметр матрицы формата : Default (MPEG)
Идентификатор кодека : XVID
Идентификатор кодека/Подсказка : XviD
Продолжительность : 1 ч. 31 м.
Битрейт : 1800 Кбит/сек
Ширина : 640 пикселей
Высота : 480 пикселей
Соотношение сторон : 4:3
Частота кадров : 25,000 кадров/сек
Цветовое пространство : YUV
Субдискретизация насыщенности : 4:2:0
Битовая глубина : 8 бит
Тип развёртки : Прогрессивная
Метод сжатия : С потерями
Бит/(Пиксели*Кадры) : 0.234
Размер потока : 1,15 Гбайт (80%)
Библиотека кодирования : XviD 1.2.1 (UTC 2008-12-04)
Аудио
Идентификатор : 1
Формат : AC-3
Формат/Информация : Audio Coding 3
Расширение режима : ME (music and effects)
Идентификатор кодека : 2000
Продолжительность : 1 ч. 31 м.
Вид битрейта : Постоянный
Битрейт : 448 Кбит/сек
Каналы : 6 каналов
Расположение каналов : Front: L C R, Side: L R, LFE
Частота : 48,0 КГц
Битовая глубина : 16 бит
Метод сжатия : С потерями
Размер потока : 292 Мбайт (20%)
Выравнивание : Разделение по промежуткам
Продолжительность промежутка : 40 мс. (1,00 видеокадр)
Время предзагрузки промежутка : 500 мс.
К сожалению, так и не удалось полностью избавиться от мерцания, присутствующего на оригинале. попытки излечения оного выразились в легком замыливании (хорошо видно на волосах Евы)
Приятного просмотра!
Download / Скачать

Хотите скачать бесплатно? Зарегистрируйтесь на сайте (ссылка на регистрацию). Pirat.ca - самый быстрый торрент трекер в рунете!

Как скачивать  ·   Что такое торрент  ·   Рейтинг и ограничения



Последний раз редактировалось: abc7 (2012-03-19 16:41), всего редактировалось 1 раз

Luzhok

Легенда

Пост 19-Мар-2012 02:24 (спустя 1 час 49 минут)

[Q] 

присоединяюсь к раздаче
в театре спектакль смотрится, конечно, гораздо живее
но тут ничего уж не поделаешь
abc7, спасибо
[Профиль]  [ЛС] 

Амангельды

35485

Пост 19-Мар-2012 07:38 (спустя 5 часов)

[Q] 

Поднимаемые темы актуальны и сейчас, и уверен, будут вечны...
Потому, как человек - существо неисправимое...

_________________

Товарищ, верь, пройдет она,
Так называемая гласность.
И вот тогда госбезопасность
Припомнит ваши имена
Раздачи от Амангельды - ТЫНЦ
[Профиль]  [ЛС] 

abc7 ®

Гроза морей

464

Пост 19-Мар-2012 17:19 (спустя 9 часов)

[Q] 

Скрины изменил и добавил....... а как Вам удалось получить медиаинфо?
[Профиль]  [ЛС] 

Андря

8405

Пост 19-Мар-2012 17:56 (спустя 36 минут)

[Q] 

Тут можно скачать программу MediaInfo
тут инструкция Как получить информацию по видеофайлу?

_________________
Като Тешекика
[Профиль]  [ЛС] 

Skala973

Корсар

Пост 28-Дек-2012 16:40 (спустя 9 месяцев 8 дней)

[Q] 

Да это было всё сделано на волне антиклирикализма, в эпоху СССР. А надо было народ наоборот, к православию подталкивать. Но за раздачу спасибо. А вот содержание...
[Профиль]  [ЛС] 

Luzhok

Легенда

Пост 28-Дек-2012 17:02 (спустя 21 минута)

[Q] 

291804А надо было народ наоборот, к православию подталкивать
кому надо?
[Профиль]  [ЛС] 

Прораб

Легенда

Пост 01-Мар-2013 10:51 (спустя 2 месяца)

[Q] 

Ну просто прекрасно!

Забираю!

_________________
Config comp: CPU-i7-2600K/RAM-32Gb/GF580GTX-1536Mb/RAID0(2 SSD-480GB)+RAID5(8 HDD-20Tb)/Win7 64bit.
[Профиль]  [ЛС] 

survol

Юнга

Пост 10-Мар-2014 16:23 (спустя 1 год)

[Q] 

У меня как-то не идёт этот спектакль, попробую ещё раз посмотреть.
[Профиль]  [ЛС] 

Гатар

Морской Волк

130

Пост 22-Май-2014 22:35 (спустя 2 месяца 12 дней)

[Q] 

Спасибо!!! помогу с раздачей
[Профиль]  [ЛС] 
Показать сообщения:    
Ответить на тему

Текущее время: Сегодня 15:37

Часовой пояс: GMT + 4



Вы не можете начинать темы
Вы не можете отвечать на сообщения
Вы не можете редактировать свои сообщения
Вы не можете удалять свои сообщения
Вы не можете голосовать в опросах
Вы не можете прикреплять файлы к сообщениям
Вы не можете скачивать файлы

▼ Вниз