Уважаемый Гость!
Вы можете поддержать проект и зарегистрироваться у наших партнеров - онлайн-стратегия MyLands. При регистрации в игре Вы получите код, который сможете активировать после регистрации на pirat.ca и получить 1000 дублонов.

Ваш код:
c338cfa05a6faf0f03d3fc8cc0d56be528fb8645
 
     

Айкидзюцу Мигель Ибарра (1-6 серии) / Aikijujutsu by Miguel Ibarra Volumes 1-6 [Айкидзюцу, VHSRip]

Ответить на тему
 
Автор
Сообщение

Пост 22-Ноя-2011 19:50

[Q] 

Goodence

Лоцман

Айкидзюцу Мигель Ибарра (1-6 серии) / Aikijujutsu by Miguel Ibarra Volumes 1-6 [VHSRip]
Вид спорта: Айкидзюцу
Язык: Английский
Участники: Miguel Ibarra
Продолжительность: общая 02:42:11
Год: Не указан
Описание: Мигель Ибарра является Кайден Шиханом школы Дайто-Рю Айки-джиу-джитсу Ямабуси Кай
(Daito Ryu Aikijujutsu Yamabushi Kai), обладателем звания Grandmaster, 10 Дан (Judan), чёрный пояс.
Айки-дзюцу - гремучая смесь Айкидо и Джиу-джитсу.
В сборнике шесть фильмов:
1) разминка, упражнения на растяжку – 257 Mb; 00:36:52
2) от белого до зелёного пояса – 335 Mb; 00:43:01
3) техника коричневого пояса – 487 Mb; 00:52:39
4) техника чёрного пояса – 430Mb; 00:45:53
5) на улице – 341 Mb; 00:36:27
6) против оружия – 256Mb; 00:28:39
Каждый приём демонстрируется несколько раз.
Качество: VHSRip
Формат: AVI
Видео кодек: XviD
Аудио кодек: MP3
Видео: MPEG-4 352x256 (1.375:1), 835–1171 Kbps, 25.00 fps, 0.371–0.520 b/px
Аудио: MPEG Audio Layer 3 (MP3), Stereo, 44.1 KHz, 128 Kbps
Часть 1:


Часть 2:


Часть 3:


Часть 4:


Часть 5:


Часть 6:

General
Complete name: 1 warm-up.avi
Format: AVI
Format/Info: Audio Video Interleave
File size: 257 MiB
Duration: 36mn 52s
Overall bit rate: 976 Kbps
Writing application: Axara Ltd.
Video
ID: 0
Format: MPEG-4 Visual
Format profile: Advanced [email protected]
Format settings, BVOP: Yes
Format settings, QPel: No
Format settings, GMC: No warppoints
Format settings, Matrix: Default (H.263)
Muxing mode: Packed bitstream
Codec ID: XVID
Codec ID/Hint: XviD
Duration: 36mn 52s
Bit rate: 835 Kbps
Width: 352 pixels
Height: 256 pixels
Display aspect ratio: 1.375
Frame rate: 25.000 fps
Color space: YUV
Chroma subsampling: 4:2:0
Bit depth: 8 bits
Scan type: Progressive
Bits/(Pixel*Frame): 0.371
Stream size: 220 MiB (86%)
Writing library: XviD 1.2.1 (UTC 2008-12-04)
Audio
ID: 1
Format: MPEG Audio
Format version: Version 1
Format profile: Layer 3
Mode: Joint stereo
Mode extension: MS Stereo
Codec ID: 55
Codec ID/Hint: MP3
Duration: 36mn 52s
Bit rate mode: Constant
Bit rate: 128 Kbps
Channel(s): 2 channels
Sampling rate: 44.1 KHz
Stream size: 33.8 MiB (13%)
Alignment: Split accross interleaves
Interleave, duration: 26 ms (0.65 video frame)
Download / Скачать

Хотите скачать бесплатно? Зарегистрируйтесь на сайте (ссылка на регистрацию). Pirat.ca - самый быстрый торрент трекер в рунете!

Как скачивать  ·   Что такое торрент  ·   Рейтинг и ограничения

Пост 23-Ноя-2011 00:22 (спустя 4 часа)

Топик был перенесен из форума Обучающие видео / Интерактивное Обучающее видео в форум Айкидо и айки-дзюцу

CaptRom
 

a_barat

Гроза морей

3283

Пост 30-Дек-2011 00:53 (спустя 1 месяц 7 дней)

[Q] 

Поддержу

_________________
This message represents an official view of the voices in my head af
[Профиль]  [ЛС] 

U-858

Флибустьер

Пост 28-Янв-2012 23:31 (спустя 29 дней)

[Q] 

НИЗКИЙ ПОКЛОН.
[Профиль]  [ЛС] 

Serjio

Штурман

430

Пост 19-Фев-2012 16:11 (спустя 21 день)

[Q] 

"Айки-дзюцу - гремучая смесь Айкидо и Джиу-джитсу." В корне неверно,айки - дзюцу а точнее дайто - рю айки - дзюцу есть ответвление школы дзю- дзюцу(у нас называют джиу - джитсу из-за неправильного перевода с английского).Школа Айки- дзюцу очень древняя и айкидо вышло из нее как отдельная школа уже после реставрации Мэйцзи,тогда как айки-дзюцу известно со времен его создателя Минамото но Есимицу ( 1036 - 1127).Так что айки-дзюцу есть прародитель айкидо и один из стилей (школ) самурайского дзю-дзюцу но никак не "гремучая смесь айкидо и джиу- джитсу".И айкидо является школой с более духовным уклоном,путем самопознания себя и гармонии со вселенной ,так говорил основатель айкибудо(айкидо) Морихей Уэсиба.В айкидо немного другая техника более так сказать спортивный вариант что ли.Тогда как дайто рю упор делает на жесткие эффективные в реальном бою приемы.
[Профиль]  [ЛС] 

ysd

Корсар

Пост 04-Авг-2012 12:20 (спустя 5 месяцев 13 дней)

[Q] 

[Профиль]  [ЛС] 

Atesh

Шкипер

Пост 11-Дек-2012 12:46 (спустя 4 месяца 7 дней)

[Q] 

Посмотрим, чему там учат ))
[Профиль]  [ЛС] 

Сергей1

Морской Волк

Пост 11-Дек-2012 18:03 (спустя 5 часов)

[Q] 

Частично согласен с Serjio, дедушка Морихей и в самом деле скомпоновал айки-до с кучи малой (сам он тренировался в разных направлениях), но ведь и джиу-джитсу(дзю- дзюцу) была не одна школа. А в целом для ценителей - рекомендую к ознакомлению, а автору спасибо!
[Профиль]  [ЛС] 

U-858

Флибустьер

Пост 28-Июл-2013 22:48 (спустя 7 месяцев 17 дней)

[Q] 

Спасибо!!!
[Профиль]  [ЛС] 

De4iK

Лоцман

Пост 27-Мар-2014 20:47 (спустя 7 месяцев 29 дней)

[Q] 

А реальная польза видео уроков есть? Не только этого а вообще всех. А то я как-то сомневаюсь=)
[Профиль]  [ЛС] 

KostiaHD75

Лоцман

Пост 11-Май-2014 14:06 (спустя 1 месяц 14 дней)

[Q] 

только практика.бой в чистом виде.
[Профиль]  [ЛС] 

vinibek2

Морской Волк

Пост 12-Июл-2014 10:32 (спустя 2 месяца)

[Q] 

Посмотрим, посмотрим Спасибо!!!
[Профиль]  [ЛС] 

OleksBy

Корсар

Пост 17-Май-2016 12:36 (спустя 1 год 10 месяцев)

[Q] 

интересно посмотреть Мне понравилось Автору респект!!!
[Профиль]  [ЛС] 
Показать сообщения:    
Ответить на тему

Текущее время: Сегодня 21:08

Часовой пояс: GMT + 4



Вы не можете начинать темы
Вы не можете отвечать на сообщения
Вы не можете редактировать свои сообщения
Вы не можете удалять свои сообщения
Вы не можете голосовать в опросах
Вы не можете прикреплять файлы к сообщениям
Вы не можете скачивать файлы

▼ Вниз