Уважаемый Гость!
Вы можете поддержать проект и зарегистрироваться у наших партнеров - онлайн-стратегия MyLands. При регистрации в игре Вы получите код, который сможете активировать после регистрации на pirat.ca и получить 1000 дублонов.

Ваш код:
258f25b2f53ed6fb81a2190732ae94c6a36ff317
 
     

Все грани айкидо (1 часть из 2) (Николай Егоров) [2009 г., Айкидо, обучающее видео, DVDRip]

Ответить на тему
 
Автор
Сообщение

Пост 03-Дек-2011 16:52

[Q] 

KyCT1993

Морской Волк

Все грани айкидо (1 часть из 2)
Год выпуска: 2009
Жанр: Айкидо, обучающее видео
Продолжительность: 01:06:55
Режиссер: Николай Егоров
В ролях: Руднеева Наталья, Лохов Александр, Салдадзе Шота, Тиханов Андрей, Лапшина Ираида, Баринов Валерий, Чернов Максим, Камалетдинов Александр, Малышева Елена.
Описание: Федерация Айкидо России представляет фильм «Все Грани Айкидо». Фильм является учебным пособием для подготовки к аттестации на 6 и 5 кю. Фильм создан под руководством Президента Федерации Айкидо России Егорова Николая Николаевича (5 Дан).
Источник/Качество: DVDRip
Формат: AVI
Видео кодек: DivX
Аудио кодек: AC3
Видео: 704x512p (1,375), 25,000 fps, MPEG4, DivX 5( H.263) ~1968 kbps avg, 0.218 bit/pixel
Аудио: Русский: 48 kHz, AC3 Dolby Digital, 2 ch, 320 kbps avg



General
Complete name : H:\Все грани айкидо часть 1.avi
Format : AVI
Format/Info : Audio Video Interleave
File size : 1.07 GiB
Duration : 1h 6mn
Overall bit rate : 2 296 Kbps
Writing application : VirtualDubMod 1.5.10.2 (build 2540/release)
Writing library : VirtualDubMod build 2540/release
Video
ID : 0
Format : MPEG-4 Visual
Format settings, BVOP : 1
Format settings, QPel : No
Format settings, GMC : No warppoints
Format settings, Matrix : Default (H.263)
Muxing mode : Packed bitstream
Codec ID : DX50
Codec ID/Hint : DivX 5
Duration : 1h 6mn
Bit rate : 1 968 Kbps
Width : 704 pixels
Height : 512 pixels
Display aspect ratio : 1.375
Frame rate : 25.000 fps
Color space : YUV
Chroma subsampling : 4:2:0
Bit depth : 8 bits
Scan type : Progressive
Compression mode : Lossy
Bits/(Pixel*Frame) : 0.218
Stream size : 942 MiB (86%)
Writing library : DivX 5.2.1 (DrDivX 106) (UTC 2004-09-08)
Audio
ID : 1
Format : AC-3
Format/Info : Audio Coding 3
Mode extension : CM (complete main)
Format settings, Endianness : Big
Codec ID : 2000
Duration : 1h 6mn
Bit rate mode : Constant
Bit rate : 320 Kbps
Channel(s) : 2 channels
Channel positions : Front: L R
Sampling rate : 48.0 KHz
Bit depth : 16 bits
Compression mode : Lossy
Stream size : 153 MiB (14%)
Alignment : Split accross interleaves
Interleave, duration : 64 ms (1.60 video frames)
Interleave, preload duration : 500 ms
Download / Скачать

Хотите скачать бесплатно? Зарегистрируйтесь на сайте (ссылка на регистрацию). Pirat.ca - самый быстрый торрент трекер в рунете!

Как скачивать  ·   Что такое торрент  ·   Рейтинг и ограничения

Пост 04-Дек-2011 00:44 (спустя 7 часов)

Топик был перенесен из форума Обучающие видео / Интерактивное Обучающее видео в форум Айкидо и айки-дзюцу

CaptRom
 

U-858

Флибустьер

Пост 11-Фев-2013 19:50 (спустя 1 год 2 месяца)

[Q] 

[Профиль]  [ЛС] 

АлександрЪЪЪ

Морской Волк

94

Пост 23-Фев-2013 10:35 (спустя 11 дней)

[Q] 

и как?качественно?
[Профиль]  [ЛС] 

Sameer87

Пост 15-Май-2013 10:38 (спустя 2 месяца 20 дней)

[Q] 

Я посмотрел, для новичков очень хорошо, побольше бы таких видео.
[Профиль]  [ЛС] 

Andy707

Лоцман

Пост 03-Мар-2014 00:11 (спустя 9 месяцев 18 дней)

[Q] 

надо отметить что это айкикай
[Профиль]  [ЛС] 

vinibek2

Морской Волк

Пост 12-Июл-2014 10:34 (спустя 4 месяца 9 дней)

[Q] 

Для новичков? Это хорошо!!!!!
[Профиль]  [ЛС] 

Region65

Шкипер

3

Пост 09-Дек-2014 13:14 (спустя 4 месяца 28 дней)

[Q] 

Больше всего в Айкидо мне нравится то, что пузо не мешает)) даже Стиви Сигалов и тот растолстел как хомячеГГ)))) Автору за видео спасибо, для новичков самый раз!))

_________________
Если хочется работать - ляг поспи и все пройдет!)))
[Профиль]  [ЛС] 
Показать сообщения:    
Ответить на тему

Текущее время: Сегодня 22:42

Часовой пояс: GMT + 4



Вы не можете начинать темы
Вы не можете отвечать на сообщения
Вы не можете редактировать свои сообщения
Вы не можете удалять свои сообщения
Вы не можете голосовать в опросах
Вы не можете прикреплять файлы к сообщениям
Вы не можете скачивать файлы

▼ Вниз