Уважаемый Гость!
Вы можете поддержать проект и зарегистрироваться у наших партнеров - онлайн-стратегия MyLands. При регистрации в игре Вы получите код, который сможете активировать после регистрации на pirat.ca и получить 1000 дублонов.

Ваш код:
42dfaac977a7ef29e5167536f5b22936dba18477
 
     

Дзюдо в Японии.Фильм 2.Хиротако Окадо

Ответить на тему
 
Автор
Сообщение

Пост 30-Окт-2011 11:31

[Q] 

Боцман

Дзюдо в Японии.Фильм 2.Хиротако Окадо
Год выпуска: 2002
Производство: Россия
Жанр: Видеоурок, Дзюдо
Продолжительность: 00:55:33
Перевод: Не требуется
Оригинальный аудиопоток: Русский
Описание: Тренировка проходит в университете Цукобо - Токио, Япония. Тренировку проводит Хиротака Окадо
Источник/Качество: DVDRip
Формат: AVI
Видео кодек: XviD
Аудио кодек: MP3
Видео: XviD, 704x528 (4/3), 25.000 fps, 1 210 Kbps (0.130 bit/pixel)
Аудио: MP3, 24.0 KHz, 2 ch, 48.0 Kbps, CBR
Видео
Идентификатор : 0
Формат : MPEG-4 Visual
Профиль формата : Advanced [email protected]
Параметр BVOP формата : 2
Параметр QPel формата : Нет
Параметр GMC формата : Без точки перехода
Параметр матрицы формата : Default (H.263)
Режим смешивания : Сжатый битовый поток
Идентификатор кодека : XVID
Идентификатор кодека/Подсказка : XviD
Продолжительность : 55 м.
Битрейт : 1210 Кбит/сек
Ширина : 704 пикс.
Высота : 528 пикс.
Соотношение сторон : 4:3
Частота кадров : 25,000 кадр/сек
Цветовое пространство : YUV
Подвыборка цветности : 4:2:0
Битовая глубина : 8 бит
Тип развёртки : Прогрессивная
Метод сжатия : С потерями
Бит/(Пиксели*Кадры) : 0.130
Размер потока : 481 Мбайт (95%)
Библиотека кодирования : XviD 1.2.1 (UTC 2008-12-04)
Аудио
Идентификатор : 1
Формат : MPEG Audio
Версия формата : Version 2
Профиль формата : Layer 3
Режим : Joint stereo
Расширение режима : Intensity Stereo
Идентификатор кодека : 55
Идентификатор кодека/Подсказка : MP3
Продолжительность : 55 м.
Вид битрейта : Постоянный
Битрейт : 48,0 Кбит/сек
Канал(ы) : 2 канала(ов)
Частота : 24,0 КГц
Метод сжатия : С потерями
Размер потока : 19,1 Мбайт (4%)
Выравнивание : Разделение по промежуткам
Продолжительность промежутка : 40 мс. (1,00 видеокадр)
Время предзагрузки промежутка : 500 ms


Download / Скачать

Хотите скачать бесплатно? Зарегистрируйтесь на сайте (ссылка на регистрацию). Pirat.ca - самый быстрый торрент трекер в рунете!

Как скачивать  ·   Что такое торрент  ·   Рейтинг и ограничения



Последний раз редактировалось: Боцман (2011-11-08 03:37), всего редактировалось 1 раз

Пост 11-Ноя-2011 03:47 (спустя 11 дней)

Топик был перенесен из форума Спорт в форум Дзюдо и самбо

CaptRom
 

U-858

Флибустьер

Пост 28-Янв-2012 23:32 (спустя 2 месяца 29 дней)

[Q] 

СПАСИП.
[Профиль]  [ЛС] 

mafik36

Лоцман

Пост 24-Фев-2012 08:52 (спустя 26 дней)

[Q] 

спасибочки
[Профиль]  [ЛС] 

larus1

Штурман

Пост 01-Мар-2012 08:01 (спустя 5 дней)

[Q] 

[Профиль]  [ЛС] 

Боцман ®

1321

Пост 10-Мар-2012 14:24 (спустя 9 дней)

[Q] 

Качайте на здоровье...

_________________
не верь не бойся не проси не плачь...
[Профиль]  [ЛС] 
Показать сообщения:    
Ответить на тему

Текущее время: Сегодня 22:29

Часовой пояс: GMT + 4



Вы не можете начинать темы
Вы не можете отвечать на сообщения
Вы не можете редактировать свои сообщения
Вы не можете удалять свои сообщения
Вы не можете голосовать в опросах
Вы не можете прикреплять файлы к сообщениям
Вы не можете скачивать файлы

▼ Вниз