ML
     
  Уважаемый Гость!
Вы можете поддержать проект и зарегистрироваться у наших партнеров - онлайн-стратегия MyLands. При регистрации в игре Вы получите код, который сможете активировать после регистрации на pirat.ca и получить 1000 дублонов.

Ваш код:
0af2e2107bc9b5dd5ac2c09f9fc25e1a77c43887
 
     

Отцы и деды (Юрий Егоров) [1982 г., комедия, DVDRip]

Ответить на тему
 
Автор
Сообщение

Пост 18-Июл-2012 04:18

[Q] 

sandman1973

Гроза морей

-Отцы и деды-- Производство: СССР
Режиссер: Юрий Егоров
Жанр: комедия
Год выпуска: 1982 г.
Продолжительность: 01:19:14
Российская премьера: 21 сентября 1982
Дата выхода DVD: 21 мая 2009
В ролях: Анатолий Папанов, Валентин Смирнитский, Алексей Ясулович, Галина Польских, Людмила Аринина, Лидия Кузнецова, Евгений Лазарев, Николай Трофимов, Вадим Андреев, Николай Мерзликин, Ирина Бобкова, Валентин Брылеев, Николай Горлов, Станислав Коренев, Юрий Маляров, Мария Пискунова-Описание: Жили-были Луков-дед, Луков-сын и Луков-внук. Дед, которому недалеко до пенсии, остается человеком энергичным и жизнелюбивым. Ему до всего есть дело - в первую очередь до дел сына и внука. Но когда деду намекают на его преклонный возраст и бесперспективность, заявив, что время его прошло, он решает доказать окружающим, что если у него седина в бороде, бес в ребро стукнет обязательно, и, соответственно, его личная жизнь еще только начинается. И если он захочет, то сможет всё: не только остановить трактор и спрыгнуть с балкона, но даже жениться...-
Качество видео: DVDRip
Формат видео: AVI
Видео кодек: DivX
Аудио кодек: AC3
Видео: DivX, 2084 Кбит/с, 720x368, 25,000 кадров/сек
Аудио: АС3, 6 ch, 384 Кбит/с, 48,0 КГц
Cубтитры: отсутствуют
Общее
Полное имя : E:\Загрузки\Otci.i.dedi.1982.DivX.DVDRip.Kinozal.tv.avi
Формат : AVI
Формат/Информация : Audio Video Interleave
Размер файла : 1,37 Гбайт
Продолжительность : 1 ч. 19 м.
Общий поток : 2472 Кбит/сек
Программа кодирования : VirtualDubMod 1.5.4.1 (build 2178/release)
Библиотека кодирования : VirtualDubMod build 2178/release
Видео
Идентификатор : 0
Формат : MPEG-4 Visual
Параметр BVOP формата : 1
Параметр QPel формата : Нет
Параметр GMC формата : Без точки перехода
Параметр матрицы формата : Default (H.263)
Режим смешивания : Сжатый битовый поток
Идентификатор кодека : DX50
Идентификатор кодека/Подсказка : DivX 5
Продолжительность : 1 ч. 19 м.
Битрейт : 2082 Кбит/сек
Ширина : 720 пикселей
Высота : 368 пикселей
Соотношение сторон : 1,957
Частота кадров : 25,000 кадров/сек
Цветовое пространство : YUV
Субдискретизация насыщенности : 4:2:0
Битовая глубина : 8 бит
Тип развёртки : Прогрессивная
Метод сжатия : С потерями
Бит/(Пиксели*Кадры) : 0.314
Размер потока : 1,15 Гбайт (84%)
Библиотека кодирования : DivX 6.8.2 (UTC 2008-05-17)
Аудио
Идентификатор : 1
Формат : AC-3
Формат/Информация : Audio Coding 3
Расширение режима : CM (complete main)
Параметр Endianness формата : Big
Идентификатор кодека : 2000
Продолжительность : 1 ч. 19 м.
Вид битрейта : Постоянный
Битрейт : 384 Кбит/сек
Каналы : 6 каналов
Расположение каналов : Front: L C R, Side: L R, LFE
Частота : 48,0 КГц
Битовая глубина : 16 бит
Метод сжатия : С потерями
Размер потока : 218 Мбайт (16%)
Выравнивание : Разделение по промежуткам
Продолжительность промежутка : 96 мс. (2,40 видеокадра)
Время предзагрузки промежутка : 96 мс.
Язык : Russian
Download / Скачать

Хотите скачать бесплатно? Зарегистрируйтесь на сайте (ссылка на регистрацию). Pirat.ca - самый быстрый торрент трекер в рунете!

Как скачивать  ·   Что такое торрент  ·   Рейтинг и ограничения



Последний раз редактировалось: sandman1973 (2012-07-18 11:51), всего редактировалось 2 раз(а)

Пост 18-Июл-2012 12:32 (спустя 8 часов)

Топик был перенесен из форума Наше Кино в форум Золотая коллекция

erchine
 

sandman1973 ®

Гроза морей

2129

Пост 21-Июл-2012 09:26 (спустя 3 дня)

[Q] 


_________________

[Профиль]  [ЛС] 
Показать сообщения:    
Ответить на тему

Текущее время: Сегодня 00:07

Часовой пояс: GMT + 4



Вы не можете начинать темы
Вы не можете отвечать на сообщения
Вы не можете редактировать свои сообщения
Вы не можете удалять свои сообщения
Вы не можете голосовать в опросах
Вы не можете прикреплять файлы к сообщениям
Вы не можете скачивать файлы

▼ Вниз