ML
     
  Уважаемый Гость!
Вы можете поддержать проект и зарегистрироваться у наших партнеров - онлайн-стратегия MyLands. При регистрации в игре Вы получите код, который сможете активировать после регистрации на pirat.ca и получить 1000 дублонов.

Ваш код:
0fcd44bd35319f69313aa6e53b31c51cbff1c942
 
     

Дон Сезар де Базан (Ян Фрид) (2 серии из 2) [1989 г., Музыкальная комедия, DVDRip][internal release]

Ответить на тему
 
Автор
Сообщение

Пост 19-Июл-2012 19:25

[Q] 

megamastor

-Дон Сезар де Базан-- Производство: Ленфильм
Режиссер: Ян Фрид
Жанр: Музыкальная комедия
Год выпуска: 1989 г.
Продолжительность: 02:13:59
Российская премьера: 4 июля 1989
Дата выхода DVD: 1 апреля 2011
В ролях: Михаил Боярский, Анна Самохина, Юрий Богатырев, Наталья Лапина, Игорь Дмитриев, Виктория Горшенина, Михаил Светин, Герман Орлов, Юрий Дедович, Василий Леонов, Андрей Краско, Алеша Подгорнов-Описание: Испания XVIII век. Обедневший граф любит уличную танцовщицу, а она — его. Но их союзу противостоит самодовольный и беспринципный испанский король! Он положил глаз на прекрасную барышню и посадил несчастного графа в тюрьму. Дни узника сочтены… Однако настоящая любовь способна преодолеть и не такие преграды!-Сэмпл | КиноПоиск
Качество видео: DVDRip
Формат видео: AVI
Видео кодек: XviD
Аудио кодек: AC3
Видео: 720x544, 1339 Кбит/сек, 25,000 кадров/сек
Аудио: 192 Кбит/сек, 2 канала, 48,0 КГц
Cубтитры: отсутствуют
Формат : AVI
Формат/Информация : Audio Video Interleave
Размер файла : 1,44 Гбайт
Продолжительность : 2 ч. 13 м.
Общий поток : 1540 Кбит/сек
Программа кодирования : VirtualDubMod 1.5.10.3 | www.virtualdub-fr.org || (build 2550/release)
Библиотека кодирования : VirtualDubMod build 2550/release
Видео
Идентификатор : 0
Формат : MPEG-4 Visual
Профиль формата : Advanced [email protected]
Параметр BVOP формата : 2
Параметр QPel формата : Нет
Параметр GMC формата : Без точки перехода
Параметр матрицы формата : Default (H.263)
Идентификатор кодека : XVID
Идентификатор кодека/Подсказка : XviD
Продолжительность : 2 ч. 13 м.
Битрейт : 1339 Кбит/сек
Ширина : 720 пикселей
Высота : 544 пикселя
Соотношение сторон : 4:3
Частота кадров : 25,000 кадров/сек
Цветовое пространство : YUV
Субдискретизация насыщенности : 4:2:0
Битовая глубина : 8 бит
Тип развёртки : Прогрессивная
Метод сжатия : С потерями
Бит/(Пиксели*Кадры) : 0.137
Размер потока : 1,25 Гбайт (87%)
Библиотека кодирования : XviD 1.2.1 (UTC 2008-12-04)
Аудио
Идентификатор : 1
Формат : AC-3
Формат/Информация : Audio Coding 3
Расширение режима : CM (complete main)
Параметр Endianness формата : Big
Идентификатор кодека : 2000
Продолжительность : 2 ч. 13 м.
Вид битрейта : Постоянный
Битрейт : 192 Кбит/сек
Каналы : 2 канала
Расположение каналов : Front: L R
Частота : 48,0 КГц
Битовая глубина : 16 бит
Метод сжатия : С потерями
Размер потока : 184 Мбайт (12%)
Выравнивание : Разделение по промежуткам
Продолжительность промежутка : 40 мс. (1,00 видеокадр)
Время предзагрузки промежутка : 500 мс.
Download / Скачать

Хотите скачать бесплатно? Зарегистрируйтесь на сайте (ссылка на регистрацию). Pirat.ca - самый быстрый торрент трекер в рунете!

Как скачивать  ·   Что такое торрент  ·   Рейтинг и ограничения



Последний раз редактировалось: megamastor (2012-07-19 19:55), всего редактировалось 5 раз(а)

Пост 19-Июл-2012 20:43 (спустя 1 час 17 минут)

Топик был перенесен из форума Наше Кино в форум Золотая коллекция

erchine
 

Сухофрукт

Гроза морей

270

Пост 19-Июл-2012 20:49 (спустя 1 час 23 минуты)

[Q] 

"Ваш сЮпруг. Дон Сезар де Базан, граф де Горофа" cm
Почесав затылок, сильно удивился: как это такого шедевра у меня нет в коллекции. В калехцыю, однозначно!
[Профиль]  [ЛС] 

vovan200976

Флибустьер

Пост 20-Июл-2012 21:47 (спустя 1 день)

[Q] 

Боярский!!!!
[Профиль]  [ЛС] 

megamastor ®

2827

Пост 21-Июл-2012 00:31 (спустя 2 часа 43 минуты)

[Q] 

vovan200976, Клёвый аватар!
[Профиль]  [ЛС] 
Показать сообщения:    
Ответить на тему

Текущее время: Сегодня 02:10

Часовой пояс: GMT + 4



Вы не можете начинать темы
Вы не можете отвечать на сообщения
Вы не можете редактировать свои сообщения
Вы не можете удалять свои сообщения
Вы не можете голосовать в опросах
Вы не можете прикреплять файлы к сообщениям
Вы не можете скачивать файлы

▼ Вниз