ML
     
  Уважаемый Гость!
Вы можете поддержать проект и зарегистрироваться у наших партнеров - онлайн-стратегия MyLands. При регистрации в игре Вы получите код, который сможете активировать после регистрации на pirat.ca и получить 1000 дублонов.

Ваш код:
a978488e62322cd72e113ab723b8a7fdc10eb9b9
 
     

Забытая мелодия для флейты (Эльдар Рязанов) (2 серии из 2) [1987 г., драма, мелодрама, комедия, DVDRip][internal release]

Ответить на тему
 
Автор
Сообщение

Пост 23-Июл-2012 15:23

[Q] 

megamastor

-Забытая мелодия для флейты(Полная реставрация изображения и звука )-- Производство: Мосфильм
Режиссер: Эльдар Рязанов
Жанр: драма, мелодрама, комедия,
Год выпуска: 1987 г.
Продолжительность: 01:03:51, 01:02:37
Российская премьера: 1 октября 1987
Дата выхода DVD: 15 сентября 2011
В ролях: Леонид Филатов, Татьяна Догилева, Ирина Купченко, Всеволод Санаев, Александр Ширвиндт, Валентин Гафт-Описание: В прошлом студент консерватории и хороший флейтист, а в настоящем — муж дочери «большого человека», и сам начальник одного из подразделений Главного управления Леонид Семенович Филимонов, однажды почувствовал физическое недомогание: прихватило сердце. И это в неполные сорок лет от роду! Сей неприятный случай послужил поводом для знакомства бывшего флейтиста с молоденькой медсестрой из ведомственной поликлиники Лидой. И закрутился бурный роман…-Сэмпл | КиноПоиск
Качество видео: DVDRip
Формат видео: AVI
Видео кодек: XviD
Аудио кодек: AC3
Видео: 720х560, 1186 Кбит/сек, 25,000 кадров/сек,
Аудио: 448 Кбит/сек, 6 каналов, 48,0 КГц
Cубтитры: отсутствуют
Формат : AVI
Формат/Информация : Audio Video Interleave
Размер файла : 751 Мбайт
Продолжительность : 1 ч. 3 м.
Общий поток : 1644 Кбит/сек
Программа кодирования : VirtualDubMod 1.5.10.3 | www.virtualdub-fr.org || (build 2550/release)
Библиотека кодирования : VirtualDubMod build 2550/release
Видео
Идентификатор : 0
Формат : MPEG-4 Visual
Профиль формата : Advanced [email protected]
Параметр BVOP формата : 2
Параметр QPel формата : Нет
Параметр GMC формата : Без точки перехода
Параметр матрицы формата : Default (H.263)
Режим смешивания : Сжатый битовый поток
Идентификатор кодека : XVID
Идентификатор кодека/Подсказка : XviD
Продолжительность : 1 ч. 3 м.
Битрейт : 1186 Кбит/сек
Ширина : 720 пикселей
Высота : 560 пикселей
Соотношение сторон : 1,286
Частота кадров : 25,000 кадров/сек
Цветовое пространство : YUV
Субдискретизация насыщенности : 4:2:0
Битовая глубина : 8 бит
Тип развёртки : Прогрессивная
Метод сжатия : С потерями
Бит/(Пиксели*Кадры) : 0.118
Размер потока : 542 Мбайт (72%)
Библиотека кодирования : XviD 1.2.1 (UTC 2008-12-04)
Аудио
Идентификатор : 1
Формат : AC-3
Формат/Информация : Audio Coding 3
Расширение режима : CM (complete main)
Параметр Endianness формата : Big
Идентификатор кодека : 2000
Продолжительность : 1 ч. 3 м.
Вид битрейта : Постоянный
Битрейт : 448 Кбит/сек
Каналы : 6 каналов
Расположение каналов : Front: L C R, Side: L R, LFE
Частота : 48,0 КГц
Битовая глубина : 16 бит
Метод сжатия : С потерями
Размер потока : 205 Мбайт (27%)
Выравнивание : Разделение по промежуткам
Продолжительность промежутка : 40 мс. (1,00 видеокадр)
Время предзагрузки промежутка : 500 мс.
____________________
Формат : AVI
Формат/Информация : Audio Video Interleave
Размер файла : 742 Мбайт
Продолжительность : 1 ч. 2 м.
Общий поток : 1657 Кбит/сек
Программа кодирования : VirtualDubMod 1.5.10.3 | www.virtualdub-fr.org || (build 2550/release)
Библиотека кодирования : VirtualDubMod build 2550/release
Видео
Идентификатор : 0
Формат : MPEG-4 Visual
Профиль формата : Advanced [email protected]
Параметр BVOP формата : 2
Параметр QPel формата : Нет
Параметр GMC формата : Без точки перехода
Параметр матрицы формата : Default (H.263)
Режим смешивания : Сжатый битовый поток
Идентификатор кодека : XVID
Идентификатор кодека/Подсказка : XviD
Продолжительность : 1 ч. 2 м.
Битрейт : 1199 Кбит/сек
Ширина : 720 пикселей
Высота : 560 пикселей
Соотношение сторон : 1,286
Частота кадров : 25,000 кадров/сек
Цветовое пространство : YUV
Субдискретизация насыщенности : 4:2:0
Битовая глубина : 8 бит
Тип развёртки : Прогрессивная
Метод сжатия : С потерями
Бит/(Пиксели*Кадры) : 0.119
Размер потока : 537 Мбайт (72%)
Библиотека кодирования : XviD 1.2.1 (UTC 2008-12-04)
Аудио
Идентификатор : 1
Формат : AC-3
Формат/Информация : Audio Coding 3
Расширение режима : CM (complete main)
Параметр Endianness формата : Big
Идентификатор кодека : 2000
Продолжительность : 1 ч. 2 м.
Вид битрейта : Постоянный
Битрейт : 448 Кбит/сек
Каналы : 6 каналов
Расположение каналов : Front: L C R, Side: L R, LFE
Частота : 48,0 КГц
Битовая глубина : 16 бит
Метод сжатия : С потерями
Размер потока : 201 Мбайт (27%)
Выравнивание : Разделение по промежуткам
Продолжительность промежутка : 40 мс. (1,00 видеокадр)
Время предзагрузки промежутка : 500 мс.
Download / Скачать

Хотите скачать бесплатно? Зарегистрируйтесь на сайте (ссылка на регистрацию). Pirat.ca - самый быстрый торрент трекер в рунете!

Как скачивать  ·   Что такое торрент  ·   Рейтинг и ограничения



Последний раз редактировалось: megamastor (2012-07-23 16:46), всего редактировалось 3 раз(а)

Пост 23-Июл-2012 16:06 (спустя 43 минуты)

Топик был перенесен из форума Наше Кино в форум Золотая коллекция

erchine
 

nadabibak

Гроза морей

Пост 25-Июл-2012 17:05 (спустя 2 дня 1 час)

[Q] 

Фильм хорош
[Профиль]  [ЛС] 
Показать сообщения:    
Ответить на тему

Текущее время: Сегодня 22:07

Часовой пояс: GMT + 4



Вы не можете начинать темы
Вы не можете отвечать на сообщения
Вы не можете редактировать свои сообщения
Вы не можете удалять свои сообщения
Вы не можете голосовать в опросах
Вы не можете прикреплять файлы к сообщениям
Вы не можете скачивать файлы

▼ Вниз