ML
     
  Уважаемый Гость!
Вы можете поддержать проект и зарегистрироваться у наших партнеров - онлайн-стратегия MyLands. При регистрации в игре Вы получите код, который сможете активировать после регистрации на pirat.ca и получить 1000 дублонов.

Ваш код:
fe4e93b754a7c2b306fcfc8bc32532ea1cf59d3b
 
     

Через тернии к звездам (Ричард Викторов)(2 серии из 2-х) [1980 г., Фантастика, DVDRip](оригинальная версия )[internal release]

Ответить на тему
 
Автор
Сообщение

Пост 02-Авг-2012 12:11

[Q] 

megamastor

-Через тернии к звездам-- Производство: киностудия имени М.Горького
Режиссер: Ричард Викторов
Жанр: Фантастика
Год выпуска: 1980 г.
Продолжительность: 02:19:10
Дата выхода DVD: 23 апреля 2009
В ролях: Елена Метёлкина (Нийя), Надежда Семенцова (Надежда Ивановна), Вадим Ледогоров (Степан Лебедев), Улдис Лиелдидж (Сергей Лебедев), Елена Фадеева (Мария Павловна Лебедева), Вацлав Дворжецкий (Петр Петрович Лебедев), Александр Лазарев (Климов), Александр Михайлов (Дрейер), Борис Щербаков (Колотун), Игорь Ледогоров (Ракан),Игорь Ясулович (Торки), Глеб Стриженов (Глан), Владимир Федоров (Туранчокс), Валерий Носик (Лий), Людмила Нильская (Селена)-Описание: ХХIII век. В таинственных глубинах Вселенной патрульный звездолет "Пушкин" обнаруживает космический корабль неизвестной землянам конструкции. На корабле находят полностью разрушенную лабораторию по клонированию человекоподобных существ. Дети и подростки, похожие один на другого, как две капли воды, мертвы. Среди погибших инопланетян оказывается один выживший искусственный гуманоид - девушка Нийя, обладающая сверхчеловеческими способностями. На Земле выясняется, что в мозг инопланетянки вшит "центр послушания", с помощью которого ей можно управлять как роботом и который призван гарантировать точное выполнение "особой миссии". Эта миссия начинает осуществляться, когда Нийя в составе экспедиции землян прилетает на свою родную планету Десса, чтобы возродить ее после экологической катастрофы...-Сэмпл КиноПоиск
Качество видео: DVDRip
Формат видео: AVI
Видео кодек: XviD
Аудио кодек: AC3
Видео: 720х336, 1748 Кбит/сек, 25,000 кадров/сек
Аудио: 448 Кбит/сек, 6 каналов, 48,0 КГц
Cубтитры: отсутствуют
Награда Вильнюсского университета за лучший фильм на тему науки на ВКФ (Вильнюс, 1982); специальный приз жюри "Серебряный астероид" Елене Метелкиной за лучшую женскую роль на МКФ научно-фантастических фильмов (Триест, 1982); Государственная премия СССР 1982 года за произведения для детей.
Формат : AVI
Формат/Информация : Audio Video Interleave
Профиль формата : OpenDML
Размер файла : 2,15 Гбайт
Продолжительность : 2 ч. 19 м.
Общий поток : 2208 Кбит/сек
Программа кодирования : VirtualDubMod 1.5.10.3 | www.virtualdub-fr.org || (build 2550/release)
Библиотека кодирования : VirtualDubMod build 2550/release
Видео
Идентификатор : 0
Формат : MPEG-4 Visual
Профиль формата : Advanced [email protected]
Параметр BVOP формата : 2
Параметр QPel формата : Нет
Параметр GMC формата : Без точки перехода
Параметр матрицы формата : Default (H.263)
Режим смешивания : Сжатый битовый поток
Идентификатор кодека : XVID
Идентификатор кодека/Подсказка : XviD
Продолжительность : 2 ч. 19 м.
Битрейт : 1748 Кбит/сек
Ширина : 720 пикселей
Высота : 336 пикселей
Соотношение сторон : 2,143
Частота кадров : 25,000 кадров/сек
Цветовое пространство : YUV
Субдискретизация насыщенности : 4:2:0
Битовая глубина : 8 бит
Тип развёртки : Прогрессивная
Метод сжатия : С потерями
Бит/(Пиксели*Кадры) : 0.289
Размер потока : 1,70 Гбайт (79%)
Библиотека кодирования : XviD 1.2.1 (UTC 2008-12-04)
Аудио
Идентификатор : 1
Формат : AC-3
Формат/Информация : Audio Coding 3
Расширение режима : CM (complete main)
Параметр Endianness формата : Big
Идентификатор кодека : 2000
Продолжительность : 2 ч. 19 м.
Вид битрейта : Постоянный
Битрейт : 448 Кбит/сек
Каналы : 6 каналов
Расположение каналов : Front: L C R, Side: L R, LFE
Частота : 48,0 КГц
Битовая глубина : 16 бит
Метод сжатия : С потерями
Размер потока : 446 Мбайт (20%)
Выравнивание : Разделение по промежуткам
Продолжительность промежутка : 40 мс. (1,00 видеокадр)
Время предзагрузки промежутка : 500 мс.
Комбинированная версия полностью соответствует оригинальной 1980 года
Download / Скачать

Хотите скачать бесплатно? Зарегистрируйтесь на сайте (ссылка на регистрацию). Pirat.ca - самый быстрый торрент трекер в рунете!

Как скачивать  ·   Что такое торрент  ·   Рейтинг и ограничения

Пост 02-Авг-2012 20:17 (спустя 8 часов)

Топик был перенесен из форума Наше кино (Трюм) в форум Золотая коллекция

erchine
 

Принц Датский

Корсар

Пост 03-Авг-2012 14:24 (спустя 1 день 2 часа)

[Q] 

...иди на "Астру"...иди на "Астру"... ag

_________________
[Профиль]  [ЛС] 

zpSaid

123

Пост 03-Авг-2012 22:21 (спустя 7 часов)

[Q] 

"Астра " ассенизатор! bj ag

_________________
Джавдет трус! Абдула воин!
[Профиль]  [ЛС] 

Пират

1474

Пост 14-Окт-2013 21:57 (спустя 1 год 2 месяца)

[Q] 

что-то захотелось такое посмотреть.... )
зы. заодно встану на раздачу )
спасибо! ay

_________________
Всё, что с нами происходит - результат наших прошлых поступков. Наше будущее зависит от того, что мы делаем сейчас...
[Профиль]  [ЛС] 

Пират

1474

Пост 14-Окт-2013 22:19 (спустя 21 минута)

[Q] 

а скажите-ка - это у вас старая или обновлённая версия?
В 2001 году сыном режиссёра Николаем Викторовым была выпущена переработанная версия фильма[1]. Проведена цифровая обработка изображения, восстановление цвета, переработаны некоторые спецэффекты, записана полностью новая звуковая дорожка в формате Dolby Digital. Продолжительность фильма приведена в соответствие со стандартами современного кинопроката, в результате он сокращён на 20 минут...

_________________
Всё, что с нами происходит - результат наших прошлых поступков. Наше будущее зависит от того, что мы делаем сейчас...
[Профиль]  [ЛС] 

bokovix

Юнга

Пост 15-Фев-2015 11:58 (спустя 1 год 4 месяца)

[Q] 

Классный фильм Лови бочку Спасибо!!!
[Профиль]  [ЛС] 

R_O_Z_A

Морской Волк

Пост 26-Фев-2015 22:53 (спустя 11 дней)

[Q] 

Спасибо за фильм Автору респект!!!
[Профиль]  [ЛС] 
Показать сообщения:    
Ответить на тему

Текущее время: Сегодня 14:32

Часовой пояс: GMT + 4



Вы не можете начинать темы
Вы не можете отвечать на сообщения
Вы не можете редактировать свои сообщения
Вы не можете удалять свои сообщения
Вы не можете голосовать в опросах
Вы не можете прикреплять файлы к сообщениям
Вы не можете скачивать файлы

▼ Вниз