ML
     
  Уважаемый Гость!
Вы можете поддержать проект и зарегистрироваться у наших партнеров - онлайн-стратегия MyLands. При регистрации в игре Вы получите код, который сможете активировать после регистрации на pirat.ca и получить 1000 дублонов.

Ваш код:
f612af22ea70acf5cbe90707ac5a076d215f8f7f
 
     

Спортлото-82 (Леонид Гайдай) [1982 г., комедия, приключения, DVDRip-AVC]

Ответить на тему
 
Автор
Сообщение

Пост 12-Авг-2012 16:41

[Q] 

leha1975

Гроза морей

-Спортлото-82-- Производство: СССР
Режиссер: Леонид Гайдай
Жанр: комедия, приключения
Год выпуска: 1982 г.
Продолжительность: 1:29:07
В ролях: Альгис Арлаускас, Светлана Аманова, Михаил Пуговкин, Михаил Кокшенов, Денис Кмит, Нина Гребешкова, Андрей Толшин, Борислав Брондуков, Луиза Мосендз, Сергей Филиппов-Описание: В вагоне поезда, следующего к Черному морю, пассажир Костя, увлекшись детективом, съел все, что было съестного у случайной попутчицы Тани, - и отдал ей билет "Спортлото". Заполнив билет, Таня вернула его Косте на хранение. Костя о билете забыл, а на этот билет, естественно, выпал выигрыш - большая сумма денег. И тогда Костя, Таня и Танин жених Павел принялись искать "утерянное" счастье...-Сэмпл
Качество видео: DVDRip-AVC
Формат видео: MKV
Видео кодек: H.264
Аудио кодек: AC3
Видео: 2284 Кбит/сек, [email protected]*424, 25,000 кад/сек AVC
Аудио: 192 Кбит/сек, 48,0 КГц, 16 бит, 2 канала, AC-3
Cубтитры: отсутствуют
F:\pirat.ca\РАЗДАЧИ-4\Спортлото-82.mkv
General
Unique ID : 203523102539452671217952790791543080351 (0x991D1FAE714D1F7694051458E854459F)
Complete name : F:\pirat.ca\РАЗДАЧИ-4\Спортлото-82.mkv
Format : Matroska
File size : 1.54 GiB
Duration : 1h 29mn
Overall bit rate : 2 478 Kbps
Encoded date : UTC 2012-12-20 19:10:37
Writing application : mkvmerge v5.8.0 ('No Sleep / Pillow') built on Sep 2 2012 15:37:04
Writing library : libebml v1.2.3 + libmatroska v1.3.0
Video #1
ID : 1
Format : AVC
Format/Info : Advanced Video Codec
Format profile : [email protected]
Format settings, CABAC : Yes
Format settings, ReFrames : 4 frames
Format settings, GOP : M=1, N=2
Codec ID : V_MPEG4/ISO/AVC
Duration : 1h 29mn
Bit rate : 2 284 Kbps
Width : 704 pixels
Height : 424 pixels
Display aspect ratio : 16:9
Original display aspect ratio : 1.850
Frame rate : 25.000 fps
Color space : YUV
Chroma subsampling : 4:2:0
Bit depth : 8 bits
Scan type : Progressive
Bits/(Pixel*Frame) : 0.306
Stream size : 1.39 GiB (90%)
Writing library : x264 core 125 r2208 d9d2288
Encoding settings : cabac=1 / ref=4 / deblock=1:-1:-1 / analyse=0x3:0x113 / me=umh / subme=10 / psy=1 / psy_rd=1.00:0.15 / mixed_ref=1 / me_range=24 / chroma_me=1 / trellis=2 / 8x8dct=1 / cqm=0 / deadzone=21,11 / fast_pskip=0 / chroma_qp_offset=-3 / threads=12 / lookahead_threads=2 / sliced_threads=0 / nr=0 / decimate=1 / interlaced=0 / bluray_compat=0 / constrained_intra=0 / bframes=3 / b_pyramid=2 / b_adapt=2 / b_bias=0 / direct=3 / weightb=1 / open_gop=0 / weightp=2 / keyint=250 / keyint_min=25 / scenecut=40 / intra_refresh=0 / rc_lookahead=60 / rc=2pass / mbtree=1 / bitrate=2284 / ratetol=1.0 / qcomp=0.60 / qpmin=0 / qpmax=69 / qpstep=4 / cplxblur=20.0 / qblur=0.5 / vbv_maxrate=17500 / vbv_bufsize=14000 / nal_hrd=none / ip_ratio=1.40 / aq=1:1.00
Audio #2
ID : 2
Format : AC-3
Format/Info : Audio Coding 3
Mode extension : CM (complete main)
Codec ID : A_AC3
Duration : 1h 29mn
Bit rate mode : Constant
Bit rate : 192 Kbps
Channel(s) : 2 channels
Channel positions : Front: L R
Sampling rate : 48.0 KHz
Bit depth : 16 bits
Compression mode : Lossy
Stream size : 122 MiB (8%)
Download / Скачать

Хотите скачать бесплатно? Зарегистрируйтесь на сайте (ссылка на регистрацию). Pirat.ca - самый быстрый торрент трекер в рунете!

Как скачивать  ·   Что такое торрент  ·   Рейтинг и ограничения



Последний раз редактировалось: leha1975 (2012-12-21 02:20), всего редактировалось 2 раз(а)

Пост 12-Авг-2012 22:06 (спустя 5 часов)

Топик был перенесен из форума Наше кино (Трюм) в форум Советское кино

erchine
 

PaulCONS

Лоцман

Пост 29-Авг-2012 21:11 (спустя 17 дней)

[Q] 

Встаньте, плиз, на раздачу.
[Профиль]  [ЛС] 

LORD OR

Корсар

Пост 12-Ноя-2012 22:19 (спустя 2 месяца 14 дней)

[Q] 

[Профиль]  [ЛС] 

misha7

Лоцман

Пост 16-Дек-2012 12:54 (спустя 1 месяц 3 дня)

[Q] 

Встаньте пжл на раздачу!
[Профиль]  [ЛС] 

misha7

Лоцман

Пост 16-Дек-2012 12:55 (спустя 1 минута)

[Q] 

leha1975,
Встаньте пжл на раздачу!
[Профиль]  [ЛС] 

leha1975 ®

Гроза морей

3384

Пост 21-Дек-2012 02:23 (спустя 4 дня)

[Q] 

Фильм перезалит

_________________

[Профиль]  [ЛС] 

budilnik74

Морской Волк

Пост 02-Янв-2013 04:49 (спустя 12 дней)

[Q] 

[Профиль]  [ЛС] 

Pirat38rus

Корсар

Пост 03-Янв-2013 11:51 (спустя 1 день 7 часов)

[Q] 

[Профиль]  [ЛС] 

picsel

Шкипер

Пост 09-Янв-2013 10:48 (спустя 5 дней)

[Q] 

[Профиль]  [ЛС] 

Dath Garret

Лоцман

Пост 04-Фев-2013 19:47 (спустя 26 дней)

[Q] 

эххх ... раздачи ... раздачи ... хоть немного =)
[Профиль]  [ЛС] 

UncleFather

Легенда

Пост 24-Мар-2013 20:19 (спустя 1 месяц 20 дней)

[Q] 


_________________
Одни боялись Пью, другие - Билли Бонса, а меня... меня боялся сам Флинт
[Профиль]  [ЛС] 

mersicc

Корсар

1614

Пост 30-Янв-2014 20:02 (спустя 10 месяцев 5 дней)

[Q] 

Супер спасибо! Всем качать!!! Лови бочку

_________________

[Профиль]  [ЛС] 

ment

Шкипер

Пост 31-Янв-2014 17:56 (спустя 21 час)

[Q] 

жизненный фильм Супер!
[Профиль]  [ЛС] 
Показать сообщения:    
Ответить на тему

Текущее время: Сегодня 00:26

Часовой пояс: GMT + 4



Вы не можете начинать темы
Вы не можете отвечать на сообщения
Вы не можете редактировать свои сообщения
Вы не можете удалять свои сообщения
Вы не можете голосовать в опросах
Вы не можете прикреплять файлы к сообщениям
Вы не можете скачивать файлы

▼ Вниз