ML
     
  Уважаемый Гость!
Вы можете поддержать проект и зарегистрироваться у наших партнеров - онлайн-стратегия MyLands. При регистрации в игре Вы получите код, который сможете активировать после регистрации на pirat.ca и получить 1000 дублонов.

Ваш код:
c89b4b6523eaac3173e9a9c062ac1a19db575961
 
     

За двумя зайцами (Виктор Иванов) [1961 г., комедия, DVDRip]

Ответить на тему
 
Автор
Сообщение

Пост 15-Сен-2012 00:22

[Q] 

sandman1973

Гроза морей

-За двумя зайцами-- Производство: СССР
Жанр: комедия
Год выпуска: 1961 г.
Продолжительность: 01:11:00
Российская премьера: 21 декабря 1961
Дата выхода DVD: 27 февраля 2009
Режиссер: Виктор Иванов
В ролях: Олег Борисов, Маргарита Криницына, Николай Яковченко, Анна Кушниренко, Нонна Копержинская, Наталья Наум, Анатолий Юрченко, Константин Ершов, Таисия Литвиненко, Ольга Викланд-Описание: Жил-был молодой бездельник по фамилии Голохвастый. Он держал в украинском городке собственную цирюльню, пребывающую в плачевном состоянии, но большую часть времени проводил в кутежах и карточных играх. Проигравшись по крупному, Голохвастый решил поправить дела женитьбой…-
Качество видео: DVDRip
Формат видео: AVI
Видео кодек: XviD
Аудио кодек: AC3
Видео: 672x512 (1.31:1), 25 fps, XviD MPEG-4 ~2270 kbps avg, 0.26 bit/pixel
Аудио: 48 kHz, AC3 Dolby Digital, 3/2 (L,C,R,l,r) + LFE ch, ~448 kbps

Общее
Полное имя : E:\Загрузки\Za.dvymya.zaycami.1961.XviD.DVDRip.avi
Формат : AVI
Формат/Информация : Audio Video Interleave
Размер файла : 1,37 Гбайт
Продолжительность : 1 ч. 11 м.
Общий поток : 2728 Кбит/сек
Программа кодирования : FairUse Wizard
Библиотека кодирования : The best and REALLY easy backup tool
Видео
Идентификатор : 0
Формат : MPEG-4 Visual
Профиль формата : Advanced [email protected]
Параметр BVOP формата : 1
Параметр QPel формата : Нет
Параметр GMC формата : Без точки перехода
Параметр матрицы формата : Default (H.263)
Режим смешивания : Сжатый битовый поток
Идентификатор кодека : XVID
Идентификатор кодека/Подсказка : XviD
Продолжительность : 1 ч. 11 м.
Битрейт : 2271 Кбит/сек
Ширина : 672 пикселя
Высота : 512 пикселей
Соотношение сторон : 4:3
Частота кадров : 25,000 кадров/сек
Цветовое пространство : YUV
Субдискретизация насыщенности : 4:2:0
Битовая глубина : 8 бит
Тип развёртки : Прогрессивная
Метод сжатия : С потерями
Бит/(Пиксели*Кадры) : 0.264
Размер потока : 1,14 Гбайт (83%)
Библиотека кодирования : XviD 1.1.0 (UTC 2005-11-22)
Аудио
Идентификатор : 1
Формат : AC-3
Формат/Информация : Audio Coding 3
Расширение режима : CM (complete main)
Параметр Endianness формата : Big
Идентификатор кодека : 2000
Продолжительность : 1 ч. 11 м.
Вид битрейта : Постоянный
Битрейт : 448 Кбит/сек
Каналы : 6 каналов
Расположение каналов : Front: L C R, Side: L R, LFE
Частота : 48,0 КГц
Битовая глубина : 16 бит
Метод сжатия : С потерями
Размер потока : 230 Мбайт (16%)
Выравнивание : Разделение по промежуткам
Продолжительность промежутка : 40 мс. (1,00 видеокадр)
Время предзагрузки промежутка : 500 мс.
- Съёмки киноленты частично проходили в Киеве.
- На Андреевском спуске в Киеве главным персонажам картины установлен памятник.
- Фильм был снят на украинском языке, т. к. изначально получил вторую категорию и планировался к показу только на территории Украинской ССР. Позже, когда фильм завоевал огромную популярность, он был частично дублирован этими же актёрами на русский язык, и был запущен во всесоюзный прокат. Оригинальная звуковая дорожка на украинском языке не сохранилась.
Download / Скачать

Хотите скачать бесплатно? Зарегистрируйтесь на сайте (ссылка на регистрацию). Pirat.ca - самый быстрый торрент трекер в рунете!

Как скачивать  ·   Что такое торрент  ·   Рейтинг и ограничения

Пост 15-Сен-2012 07:53 (спустя 7 часов)

Топик был перенесен из форума Наше кино (Трюм) в форум Золотая коллекция

genkasper
 

jumpersky

Легенда

Пост 15-Сен-2012 11:07 (спустя 10 часов)

[Q] 

[Профиль]  [ЛС] 

cergo

Гроза морей

20061

Пост 15-Сен-2012 18:43 (спустя 7 часов)

[Q] 

[Профиль]  [ЛС] 
Показать сообщения:    
Ответить на тему

Текущее время: Сегодня 22:28

Часовой пояс: GMT + 4



Вы не можете начинать темы
Вы не можете отвечать на сообщения
Вы не можете редактировать свои сообщения
Вы не можете удалять свои сообщения
Вы не можете голосовать в опросах
Вы не можете прикреплять файлы к сообщениям
Вы не можете скачивать файлы

▼ Вниз