ML
     
  Уважаемый Гость!
Вы можете поддержать проект и зарегистрироваться у наших партнеров - онлайн-стратегия MyLands. При регистрации в игре Вы получите код, который сможете активировать после регистрации на pirat.ca и получить 1000 дублонов.

Ваш код:
e93cd9e43017f251127f220889864c05934e61c6
 
     

Дело было в Пенькове (Станислав Ростоцкий) [1957 г., драма, мелодрама, DVDRip]

Ответить на тему
 
Автор
Сообщение

Пост 31-Окт-2012 09:37

[Q] 

sandman1973

Гроза морей

-Дело было в Пенькове-- Производство: СССР, "Киностудия им. М.Горького"
Режиссер: Станислав Ростоцкий
Жанр: драма, мелодрама
Год выпуска: 1957 г.
Продолжительность: 01:34:00
Российская премьера: 17 февраля 1958
Дата выхода DVD: 10 апреля 2009
В ролях: Майя Менглет, Вячеслав Тихонов, Светлана Дружинина, Владимир Ратомский, Валентина Телегина, Анатолий Кубацкий, Юрий Медведев, Александра Харитонова, Юрий Мартынов, Елена Мельникова-Описание: В родное село возвращается из мест «не столь отдаленных» лихой тракторист Матвей Морозов. И вспоминается ему история его женитьбы, его роковой любви, несостоявшейся измены и совершенного сгоряча «преступления», в котором он нисколько не раскаивается. Первый парень на деревне, Матвей Морозов был настоящей головной болью для председателя колхоза. Правда, работал за десятерых, но горазд был на всякие выдумки. Да к тому же полюбила его председательская дочка Лариса. Очередной выходкой Матвея были «гонки» на тракторах с передовиком производства Зефировым, в результате чего был сломан трактор. Чуть было не отдали Матвея под суд, да вместо этого пришлось играть его свадьбу с Ларисой. А потом поползли по селу слухи о «дружбе» Матвея с новым зоотехником Тоней. Жутко взревновала Лариса и задумала извести соперницу. Да еще бабка Алевтина — местная сплетница и самогонщица — подлила масла в огонь, выложив новые сведения о Матвее и Тоне…-
Качество видео: DVDRip
Формат видео: AVI
Видео кодек: XviD
Аудио кодек: AC3
Видео: 704х528, 1675 Кбит/сек, 25,000 кадров/сек
Аудио: 384 Кбит/сек, 6 каналов, 48,0 КГц
Общее
Полное имя : E:\Загрузки\Delo.Bylo.V.Penkove.1957.XviD.DVDRip.avi
Формат : AVI
Формат/Информация : Audio Video Interleave
Размер файла : 1,36 Гбайт
Продолжительность : 1 ч. 34 м.
Общий поток : 2069 Кбит/сек
Программа кодирования : VirtualDubMod 1.5.10.2 (build 2540/release)
Библиотека кодирования : VirtualDubMod build 2540/release
Видео
Идентификатор : 0
Формат : MPEG-4 Visual
Профиль формата : Advanced [email protected]
Параметр BVOP формата : 2
Параметр QPel формата : Нет
Параметр GMC формата : Без точки перехода
Параметр матрицы формата : Default (MPEG)
Режим смешивания : Сжатый битовый поток
Идентификатор кодека : XVID
Идентификатор кодека/Подсказка : XviD
Продолжительность : 1 ч. 34 м.
Битрейт : 1675 Кбит/сек
Ширина : 704 пикселя
Высота : 528 пикселей
Соотношение сторон : 4:3
Частота кадров : 25,000 кадров/сек
Цветовое пространство : YUV
Субдискретизация насыщенности : 4:2:0
Битовая глубина : 8 бит
Тип развёртки : Прогрессивная
Метод сжатия : С потерями
Бит/(Пиксели*Кадры) : 0.180
Размер потока : 1,10 Гбайт (81%)
Библиотека кодирования : XviD 1.2.1 (UTC 2008-12-04)
Аудио
Идентификатор : 1
Формат : AC-3
Формат/Информация : Audio Coding 3
Расширение режима : CM (complete main)
Параметр Endianness формата : Big
Идентификатор кодека : 2000
Продолжительность : 1 ч. 34 м.
Вид битрейта : Постоянный
Битрейт : 384 Кбит/сек
Каналы : 6 каналов
Расположение каналов : Front: L C R, Side: L R, LFE
Частота : 48,0 КГц
Битовая глубина : 16 бит
Метод сжатия : С потерями
Размер потока : 259 Мбайт (19%)
Выравнивание : Разделение по промежуткам
Продолжительность промежутка : 40 мс. (1,00 видеокадр)
Время предзагрузки промежутка : 500 мс.
- Вячеслав Тихонов был утвержден на роль в последний момент, когда съёмки фильма уже шли полным ходом.
- В фильме звучит песня «Огней так много золотых» на стихи Николая Доризо.
- Съемки фильма большей частью проходили в окрестностях деревни Кленково, Клинского района Московской области.
Download / Скачать

Хотите скачать бесплатно? Зарегистрируйтесь на сайте (ссылка на регистрацию). Pirat.ca - самый быстрый торрент трекер в рунете!

Как скачивать  ·   Что такое торрент  ·   Рейтинг и ограничения

CHARLI2236

1089

Пост 25-Июл-2013 18:27 (спустя 8 месяцев 25 дней)

[Q] 

1

_________________
[Профиль]  [ЛС] 
Показать сообщения:    
Ответить на тему

Текущее время: Сегодня 04:30

Часовой пояс: GMT + 4



Вы не можете начинать темы
Вы не можете отвечать на сообщения
Вы не можете редактировать свои сообщения
Вы не можете удалять свои сообщения
Вы не можете голосовать в опросах
Вы не можете прикреплять файлы к сообщениям
Вы не можете скачивать файлы

▼ Вниз