ML
     
  Уважаемый Гость!
Вы можете поддержать проект и зарегистрироваться у наших партнеров - онлайн-стратегия MyLands. При регистрации в игре Вы получите код, который сможете активировать после регистрации на pirat.ca и получить 1000 дублонов.

Ваш код:
5f4e94775bc0501caff7b254e79328d304c817d9
 
     

Чужая родня (Михаил Швейцер) [1955 г., драма, мелодрама, DVDRip]

Ответить на тему
 
Автор
Сообщение

Пост 31-Окт-2012 09:59

[Q] 

sandman1973

Гроза морей

-Чужая родня-- Производство: СССР, "Ленфильм"
Режиссер: Михаил Швейцер
Жанр: драма, мелодрама
Год выпуска: 1955 г.
Продолжительность: 01:33:00
Российская премьера: 16 января 1956
В ролях: Николай Рыбников, Нонна Мордюкова, Николай Сергеев, Александра Денисова, Елена Максимова, Степан Крылов, Любовь Малиновская, Леонид Кмит, Леонид Быков, Владимир Гуляев-Описание: Разве мог он предположить до женитьбы, как душно и тесно будет в пронафталиненном мирке ее родителей. Настоящий комсомолец с искренней заботой о родном колхозе, Федор не примирился с их затаенной ненавистью к коллективному хозяйству. Между молодыми возник конфликт…-
Качество видео: DVDRip
Формат видео: AVI
Видео кодек: DivX
Аудио кодек: AC3
Видео: 704х496, 1893 Кбит/сек, 25,000 кадров/сек
Аудио: 192 Кбит/сек, 2 канала, 48,0 КГц

Общее
Полное имя : E:\Загрузки\Chujaya.Rodnya.1955.DivX.DVDRip.avi
Формат : AVI
Формат/Информация : Audio Video Interleave
Размер файла : 1,37 Гбайт
Продолжительность : 1 ч. 33 м.
Общий поток : 2095 Кбит/сек
Программа кодирования : VirtualDubMod 1.5.10.2 (build 2540/release)
Библиотека кодирования : VirtualDubMod build 2540/release
Видео
Идентификатор : 0
Формат : MPEG-4 Visual
Параметр BVOP формата : 1
Параметр QPel формата : Нет
Параметр GMC формата : Без точки перехода
Параметр матрицы формата : Default (H.263)
Режим смешивания : Сжатый битовый поток
Идентификатор кодека : DX50
Идентификатор кодека/Подсказка : DivX 5
Продолжительность : 1 ч. 33 м.
Битрейт : 1893 Кбит/сек
Ширина : 704 пикселя
Высота : 496 пикселей
Соотношение сторон : 1,419
Частота кадров : 25,000 кадров/сек
Цветовое пространство : YUV
Субдискретизация насыщенности : 4:2:0
Битовая глубина : 8 бит
Тип развёртки : Прогрессивная
Метод сжатия : С потерями
Бит/(Пиксели*Кадры) : 0.217
Размер потока : 1,24 Гбайт (90%)
Библиотека кодирования : DivX 6.8.0 (UTC 2007-12-04)
Аудио
Идентификатор : 1
Формат : AC-3
Формат/Информация : Audio Coding 3
Расширение режима : CM (complete main)
Параметр Endianness формата : Big
Идентификатор кодека : 2000
Продолжительность : 1 ч. 33 м.
Вид битрейта : Постоянный
Битрейт : 192 Кбит/сек
Каналы : 2 канала
Расположение каналов : Front: L R
Частота : 48,0 КГц
Битовая глубина : 16 бит
Метод сжатия : С потерями
Размер потока : 128 Мбайт (9%)
Выравнивание : Разделение по промежуткам
Продолжительность промежутка : 40 мс. (1,00 видеокадр)
Время предзагрузки промежутка : 500 мс.
Download / Скачать

Хотите скачать бесплатно? Зарегистрируйтесь на сайте (ссылка на регистрацию). Pirat.ca - самый быстрый торрент трекер в рунете!

Как скачивать  ·   Что такое торрент  ·   Рейтинг и ограничения

Показать сообщения:    
Ответить на тему

Текущее время: Сегодня 15:37

Часовой пояс: GMT + 4



Вы не можете начинать темы
Вы не можете отвечать на сообщения
Вы не можете редактировать свои сообщения
Вы не можете удалять свои сообщения
Вы не можете голосовать в опросах
Вы не можете прикреплять файлы к сообщениям
Вы не можете скачивать файлы

▼ Вниз