ML
     
  Уважаемый Гость!
Вы можете поддержать проект и зарегистрироваться у наших партнеров - онлайн-стратегия MyLands. При регистрации в игре Вы получите код, который сможете активировать после регистрации на pirat.ca и получить 1000 дублонов.

Ваш код:
2932e5898d0a27592397f70b82a5834d1e70ea19
 
     

Тени исчезают в полдень (Владимир Краснопольский, Валерий Усков) [1971 г., Драма, DVDRip-AVC]

Ответить на тему
 
Автор
Сообщение

Пост 09-Дек-2012 15:24

[Q] 

canfly

-Тени исчезают в полдень-- Производство: Мосфильм
Режиссер: Владимир Краснопольский, Валерий Усков
Жанр: Драма
Год выпуска: 1971 г.
Продолжительность: 7 x ~ 01:08:00
Российская премьера: 14 февраля 1972
Дата выхода DVD: 1 апреля 2011, «Парадиз Медиа»
В ролях:
Геннадий Корольков
Пётр Вельяминов
Борис Новиков
Нина Русланова
Виктор Шульгин
Иван Рыжов
Галина Польских
Николай Парфёнов
Роман Филиппов
Евгений Шутов-Описание: История небольшой деревни Зеленый Дол, затерявшейся в таежной глуши, стала отражением судьбы огромной страны. Перед зрителем разворачивается широкая панорама народной жизни: от разгрома белых банд Колчака до первой борозды трактора на колхозной меже, от первых выборов в Верховный Совет до проводов зеленодольцев на фронты Великой Отечественной войны, от трудового подвига женских рук в тылу до Дня Победы, до первого послевоенного хлеба.
1. Красная Марья
2. Пришлые люди
3. Горькое счастье
4. Марьин утёс
5. Речные звёзды
6. Трудная зима
7. Захар Большаков
В 1970-х — начале 1980-х гг. фильм демонстрировался по телевидению и в сокращённом варианте, в четырёх частях (именно таким был его показ «с субтитрами»). В 1998 г. канал ОРТ выпустил новую версию фильма — в 10 сериях, меньшей продолжительностью каждая. Качество изображения для данной версии было улучшено. Дополнительные серии также имели названия.
-КиноПоиск
Качество видео: DVDRip-AVC
Формат видео: MKV
Видео кодек: H.264
Аудио кодек: AC3
Видео: 720x544, 25 fps, 2940 kbps
Аудио: 48 kHz, AC3, 2 ch, 192.00 kbps
Фильм был удостоен большой премии на ВТФ в Ташкенте.
Общее
Уникальный идентификатор : 185882383694764846315522851381545801552 (0x8BD7A517751C825C9C6764478C281750)
Полное имя : I:\Тени исчезают в полдень\1\Тени исчезают в полдень\Teni_schezayut_v_polden_1.mkv
Формат : Matroska
Версия формата : Version 2
Размер файла : 1,72 Гбайт
Продолжительность : 1 ч. 18 м.
Общий поток : 3134 Кбит/сек
Дата кодирования : UTC 2012-07-25 09:39:05
Программа кодирования : mkvmerge v5.6.0 ('Kenya Kane') built on Jun 29 2012 15:01:44
Библиотека кодирования : libebml v1.2.3 + libmatroska v1.3.0
Видео
Идентификатор : 1
Формат : AVC
Формат/Информация : Advanced Video Codec
Профиль формата : [email protected]
Параметр CABAC формата : Да
Параметр ReFrames формата : 11 кадров
Идентификатор кодека : V_MPEG4/ISO/AVC
Продолжительность : 1 ч. 18 м.
Битрейт : 2940 Кбит/сек
Ширина : 720 пикселей
Высота : 544 пикселя
Соотношение сторон : 4:3
Режим частоты кадров : Постоянный
Частота кадров : 25,000 кадров/сек
Цветовое пространство : YUV
Субдискретизация насыщенности : 4:2:0
Битовая глубина : 8 бит
Тип развёртки : Прогрессивная
Бит/(Пиксели*Кадры) : 0.300
Размер потока : 1,58 Гбайт (92%)
Библиотека кодирования : x264 core 125 r2200 999b753
Настройки программы : cabac=1 / ref=11 / deblock=1:-2:-1 / analyse=0x3:0x133 / me=umh / subme=9 / psy=1 / psy_rd=1.00:0.20 / mixed_ref=0 / me_range=16 / chroma_me=1 / trellis=2 / 8x8dct=1 / cqm=0 / deadzone=21,11 / fast_pskip=0 / chroma_qp_offset=-3 / threads=3 / lookahead_threads=1 / sliced_threads=0 / nr=0 / decimate=0 / interlaced=0 / bluray_compat=0 / constrained_intra=0 / bframes=4 / b_pyramid=2 / b_adapt=2 / b_bias=0 / direct=3 / weightb=1 / open_gop=0 / weightp=2 / keyint=250 / keyint_min=25 / scenecut=40 / intra_refresh=0 / rc_lookahead=60 / rc=2pass / mbtree=1 / bitrate=2940 / ratetol=1.0 / qcomp=0.60 / qpmin=0 / qpmax=69 / qpstep=4 / cplxblur=20.0 / qblur=0.5 / ip_ratio=1.40 / aq=1:1.00
Default : Да
Forced : Нет
Аудио
Идентификатор : 2
Формат : AC-3
Формат/Информация : Audio Coding 3
Расширение режима : CM (complete main)
Параметр Endianness формата : Big
Идентификатор кодека : A_AC3
Продолжительность : 1 ч. 18 м.
Вид битрейта : Постоянный
Битрейт : 192 Кбит/сек
Каналы : 2 канала
Расположение каналов : Front: L R
Частота : 48,0 КГц
Битовая глубина : 16 бит
Метод сжатия : С потерями
Размер потока : 108 Мбайт (6%)
Default : Да
Forced : Нет
Download / Скачать

Хотите скачать бесплатно? Зарегистрируйтесь на сайте (ссылка на регистрацию). Pirat.ca - самый быстрый торрент трекер в рунете!

Как скачивать  ·   Что такое торрент  ·   Рейтинг и ограничения



Последний раз редактировалось: canfly (2012-12-11 08:49), всего редактировалось 14 раз(а)

Пост 11-Дек-2012 12:44 (спустя 1 день 21 час)

Топик был перенесен из форума Наше кино (Трюм) в форум Золотая коллекция

erchine
 

Дядя Витя

53908

Пост 15-Сен-2013 15:12 (спустя 9 месяцев 5 дней)

[Q] 

Загремим, ить, под панфары .........
Раздающему респект!

_________________
?
[Профиль]  [ЛС] 

ВованСидорыч

Шкипер

Пост 15-Сен-2013 17:42 (спустя 2 часа 30 минут)

[Q] 

Спасибо большое
[Профиль]  [ЛС] 
Показать сообщения:    
Ответить на тему

Текущее время: Сегодня 08:02

Часовой пояс: GMT + 4



Вы не можете начинать темы
Вы не можете отвечать на сообщения
Вы не можете редактировать свои сообщения
Вы не можете удалять свои сообщения
Вы не можете голосовать в опросах
Вы не можете прикреплять файлы к сообщениям
Вы не можете скачивать файлы

▼ Вниз