ML
     
  Уважаемый Гость!
Вы можете поддержать проект и зарегистрироваться у наших партнеров - онлайн-стратегия MyLands. При регистрации в игре Вы получите код, который сможете активировать после регистрации на pirat.ca и получить 1000 дублонов.

Ваш код:
cc3be08b7507661c03e0a2f582d0da3a659ea55a
 
     

Место встречи изменить нельзя Серии: 1-5 из 5 (Станислав Говорухин) [1979 г., Криминальная драма, детектив, DVDRip-AVC]

Ответить на тему
 
Автор
Сообщение

Пост 24-Дек-2012 17:51

[Q] 

leha1975

Гроза морей

-Место встречи изменить нельзя Серии: 1-5 из 5-- Производство: СССР
Режиссер: Станислав Говорухин
Жанр: Криминальная драма, детектив
Год выпуска: 1979 г.
Продолжительность: 01:06:45
Российская премьера: 11 ноября 1979
Дата выхода DVD: 16 апреля 2009
В ролях: Владимир Высоцкий, Евгений Евстигнеев, Владимир Конкин, Армен Джигарханян, Александр Белявский, Зиновий Гердт, Иван Бортник, Андрей Градов, Екатерина Градова, Наталья Данилова, Всеволод Абдулов, Евгений Леонов-Гладышев, Лев Перфилов, Станислав Садальский, Евгений Шутов, Лариса Удовиченко, Сергей Юрский, Наталья Фатеева, Виктор Павлов, Леонид Куравлев, Александр Абдулов, Светлана Светличная, Наталья Крачковская, Валерия Заклунная-Описание: Лето 1945-го. Отгремел салют Великой Победы и страна постепенно начинает возвращаться к мирной жизни. Демобилизовавшийся офицер-разведчик Владимир Шарапов (Владимир Конкин) начинает работать в Московском уголовном розыске, в отделе по борьбе с бандитизмом, руководит которым известный всем московским ворам и бандитам Глеб Жеглов (Владимир Высоцкий) Одно из первых дел, к расследованию которого подключается Володя, - убийство Ларисы Груздевой. Вскоре выясняется, что оно тесно связано с делом таинственной и неуловимой банды "Черная кошка", за которой давно и пока безуспешно гоняется весь МУР. Убийства, засады, погони, перестрелки - на фоне послевоенной Москвы...-Сэмпл КиноПоиск
Качество видео: DVDRip-AVC
Формат видео: MKV
Видео кодек: H.264
Аудио кодек: AC3
Видео: 2 098 Kbps, [email protected]*572 ,4:3, 25.000 fps
Аудио: 192 Кбит /сек, 48,0 КГц, 16 бит, 2 канала, AC-3
Cубтитры: отсутствуют
F:\pirat.ca\РАЗДАЧИ-4\МЕСТО ВСТРЕЧИ ИЗМЕНИТЬ НЕЛЬЗЯ\001.mkv
General
Unique ID : 253419946249671109276831035363413380710 (0xBEA6E80331764BEEAFCFA317F8FACE66)
Complete name : F:\pirat.ca\РАЗДАЧИ-4\МЕСТО ВСТРЕЧИ ИЗМЕНИТЬ НЕЛЬЗЯ\001.mkv
Format : Matroska
File size : 1.07 GiB
Duration : 1h 6mn
Overall bit rate : 2 292 Kbps
Encoded date : UTC 2012-12-23 17:43:02
Writing application : mkvmerge v4.0.0 ('The Stars were mine') сборка от Jun 6 2010 16:18:42
Writing library : libebml v1.0.0 + libmatroska v1.0.0
Video #1
ID : 1
Format : AVC
Format/Info : Advanced Video Codec
Format profile : [email protected]
Format settings, CABAC : Yes
Format settings, ReFrames : 4 frames
Codec ID : V_MPEG4/ISO/AVC
Duration : 1h 6mn
Bit rate : 2 098 Kbps
Width : 702 pixels
Height : 572 pixels
Display aspect ratio : 4:3
Original display aspect ratio : 4:3
Frame rate : 25.000 fps
Color space : YUV
Chroma subsampling : 4:2:0
Bit depth : 8 bits
Scan type : Progressive
Bits/(Pixel*Frame) : 0.209
Stream size : 981 MiB (90%)
Writing library : x264 core 125 r2200 999b753
Audio #2
ID : 2
Format : AC-3
Format/Info : Audio Coding 3
Mode extension : CM (complete main)
Codec ID : A_AC3
Duration : 1h 6mn
Bit rate mode : Constant
Bit rate : 192 Kbps
Channel(s) : 2 channels
Channel positions : Front: L R
Sampling rate : 48.0 KHz
Bit depth : 16 bits
Compression mode : Lossy
Stream size : 91.7 MiB (8%)
Download / Скачать

Хотите скачать бесплатно? Зарегистрируйтесь на сайте (ссылка на регистрацию). Pirat.ca - самый быстрый торрент трекер в рунете!

Как скачивать  ·   Что такое торрент  ·   Рейтинг и ограничения

Пост 25-Дек-2012 03:35 (спустя 9 часов)

Топик был перенесен из форума Зарубежные сериалы (Трюм) в форум Наше кино (Трюм)

Андря
 

Андря

8419

Пост 25-Дек-2012 03:36 (спустя 9 часов)

[Q] 

в золотую коллекцию

_________________
Като Тешекика
[Профиль]  [ЛС] 

Пост 25-Дек-2012 12:15 (спустя 8 часов)

Топик был перенесен из форума Наше кино (Трюм) в форум Золотая коллекция

ara1205
 

Dazdranargon

Флибустьер

Пост 26-Дек-2012 02:43 (спустя 23 часа)

[Q] 

В коллекции это иметь обязательно! Шикарные актёры, отличный фильм! Пересматривать много раз!

_________________

[Профиль]  [ЛС] 

Gera70

Морской Волк

Пост 26-Дек-2012 21:29 (спустя 18 часов)

[Q] 

Классика!
[Профиль]  [ЛС] 

tempest

Шкипер

Пост 20-Янв-2013 23:17 (спустя 25 дней)

[Q] 

Фильм, который не требует обсуждений. Он культовый.
[Профиль]  [ЛС] 

вини

Лоцман

Пост 23-Мар-2013 15:26 (спустя 2 месяца 2 дня)

[Q] 

смотрел много раз и всегда как первый раз)))фильм супер!!!
[Профиль]  [ЛС] 

UncleFather

Легенда

Пост 24-Мар-2013 20:17 (спустя 1 день 4 часа)

[Q] 


_________________
Одни боялись Пью, другие - Билли Бонса, а меня... меня боялся сам Флинт
[Профиль]  [ЛС] 

СерКат

Корсар

Пост 27-Ноя-2013 01:51 (спустя 8 месяцев 2 дня)

[Q] 

КЛАССИКА,нет таких людей кому не понравился,кому непонравился? те за бортом
[Профиль]  [ЛС] 

UncleFather

Легенда

Пост 17-Янв-2014 14:19 (спустя 1 месяц 20 дней)

[Q] 

Фильм, безусловно, отличный, но, имхо, если б не Владимир Семенович - то не было бы такого успеха.

_________________
Одни боялись Пью, другие - Билли Бонса, а меня... меня боялся сам Флинт
[Профиль]  [ЛС] 

ment

Шкипер

Пост 31-Янв-2014 17:48 (спустя 14 дней)

[Q] 

супер фильм Супер! Лови бочку
[Профиль]  [ЛС] 

reg25

Корсар

Пост 01-Фев-2014 02:20 (спустя 8 часов)

[Q] 

Всем к обязательному просмотру
Всем качать!!!
[Профиль]  [ЛС] 

Феонолини

Шкипер

Пост 18-Апр-2014 19:29 (спустя 2 месяца 17 дней)

[Q] 

Раздавать будем или как?

_________________
Где есть свет, всегда есть тень. Под светом счастья... Всегда есть тень отчаяния ...
Хун Мин
[Профиль]  [ЛС] 

Trianon777

Морской Волк

Пост 15-Ноя-2014 02:34 (спустя 6 месяцев 26 дней)

[Q] 

Спасибо за раздачу! Однозначно, - ШЕДЕВР... на все времена, 5++ баллов!
[Профиль]  [ЛС] 

alex denver71

Флибустьер

Пост 09-Янв-2015 11:16 (спустя 1 месяц 24 дня)

[Q] 

Автору респект!!! за данный фильм Лови бочку Фильм отличный!!!
[Профиль]  [ЛС] 

wm76

Шкипер

Пост 09-Янв-2015 15:26 (спустя 4 часа)

[Q] 

Спасибо!!! СУПЕР! АВТОРУ РЕСПЕКТ!
[Профиль]  [ЛС] 
Показать сообщения:    
Ответить на тему

Текущее время: Сегодня 05:07

Часовой пояс: GMT + 4



Вы не можете начинать темы
Вы не можете отвечать на сообщения
Вы не можете редактировать свои сообщения
Вы не можете удалять свои сообщения
Вы не можете голосовать в опросах
Вы не можете прикреплять файлы к сообщениям
Вы не можете скачивать файлы

▼ Вниз