ML
     
  Уважаемый Гость!
Вы можете поддержать проект и зарегистрироваться у наших партнеров - онлайн-стратегия MyLands. При регистрации в игре Вы получите код, который сможете активировать после регистрации на pirat.ca и получить 1000 дублонов.

Ваш код:
193c38d0130f05c24de871678ea3ac181461757d
 
     

Бриллиантовая рука (Леонид Гайдай) [1968 г., Комедия, DVDRip]

Ответить на тему
 
Автор
Сообщение

Пост 30-Янв-2013 19:03

[Q] 

cergo

Гроза морей

- Бриллиантовая рука -- Производство: СССР, Мосфильм
Режиссер: Леонид Гайдай
Жанр: Комедия
Год выпуска: 1968 г.
Продолжительность: 01:34:19
Российская премьера: 28 апреля 1969,
Дата выхода DVD: 29 апреля 2009, «Азимут»
Дата выхода Blu-Ray: 20 декабря 2011, «Парадиз Медиа»
-В ролях: Юрий Никулин, Анатолий Папанов, Андрей Миронов, Нина Гребешкова, Нонна Мордюкова, Светлана Светличная, Станислав Чекан, Владимир Гуляев, Евгения Мельникова, Андрей Файт, Григорий Шпигель, Леонид Каневский, Татьяна Никулина, Роман Филиппов, Николай Трофимов, Александр Ячницкий, Лев Поляков, Герман Качин, Игорь Ясулович, Александра Лисютина, Дмитрий Николаев, Александр Хвыля, Георгий Светлани, Василий Куприянов, Иван Жеваго, Виктор Уральский, Максим Никулин-Описание: Эксцентрическая комедия в двух частях (1-я часть "Бриллиант почти не виден" и 2-я часть "Костяная нога"), с прологом и эпилогом о скромном труженике Семене Семеныче, вступившем в героический поединок с шайкой контрабандистов-валютчиков, уже четыре десятилетия остается одним из любимейших в народе кинофильмов. Феерический каскад трюков, шуток, музыкальных номеров в исполнении блистательных комедийных актеров неизменно "поражает" смехом любую аудиторию…-
Качество видео: DVDRip
Контейнер: AVI
Видео кодек: XviD
Аудио кодек: AC3
Видео: 704x320 (2.20:1), 25 fps, XviD build 50 ~1630 kbps avg, 0.29 bit/pixel
Аудио: 48 kHz, AC3 Dolby Digital, 3/2 (L,C,R,l,r) + LFE ch, ~448 kbps
Cубтитры: отсутствуют
Общее
Полное имя : D:\Архив\ФИЛЬМЫ\Brilliantovaja.Ruka.1968.XviD.DVDRip.avi
Формат : AVI
Формат/Информация : Audio Video Interleave
Размер файла : 1,38 Гбайт
Продолжительность : 1 ч. 34 м.
Общий поток : 2087 Кбит/сек
Программа кодирования : VirtualDubMod 1.5.10.2 (build 2540/release)
Библиотека кодирования : VirtualDubMod build 2540/release
Видео
Идентификатор : 0
Формат : MPEG-4 Visual
Профиль формата : Advanced [email protected]
Параметр BVOP формата : 2
Параметр QPel формата : Нет
Параметр GMC формата : Без точки перехода
Параметр матрицы формата : Default (MPEG)
Идентификатор кодека : XVID
Идентификатор кодека/Подсказка : XviD
Продолжительность : 1 ч. 34 м.
Битрейт : 1630 Кбит/сек
Ширина : 704 пикселя
Высота : 320 пикселей
Соотношение сторон : 2,2:1
Частота кадров : 25,000 кадров/сек
Цветовое пространство : YUV
Субдискретизация насыщенности : 4:2:0
Битовая глубина : 8 бит
Тип развёртки : Прогрессивная
Метод сжатия : С потерями
Бит/(Пиксели*Кадры) : 0.289
Размер потока : 1,07 Гбайт (78%)
Библиотека кодирования : XviD 1.2.1 (UTC 2008-12-04)
Аудио
Идентификатор : 1
Формат : AC-3
Формат/Информация : Audio Coding 3
Расширение режима : CM (complete main)
Идентификатор кодека : 2000
Продолжительность : 1 ч. 34 м.
Вид битрейта : Постоянный
Битрейт : 448 Кбит/сек
Каналы : 6 каналов
Расположение каналов : Front: L C R, Side: L R, LFE
Частота : 48,0 КГц
Битовая глубина : 16 бит
Метод сжатия : С потерями
Размер потока : 302 Мбайт (21%)
Выравнивание : Разделение по промежуткам
Продолжительность промежутка : 40 мс. (1,00 видеокадр)
Время предзагрузки промежутка : 500 мс.
Download / Скачать

Хотите скачать бесплатно? Зарегистрируйтесь на сайте (ссылка на регистрацию). Pirat.ca - самый быстрый торрент трекер в рунете!

Как скачивать  ·   Что такое торрент  ·   Рейтинг и ограничения

Пост 30-Янв-2013 21:30 (спустя 2 часа 26 минут)

Топик был перенесен из форума Наше кино (Трюм) в форум Золотая коллекция

ara1205
 

Wolf111

57088

Пост 23-Мар-2013 16:55 (спустя 1 месяц 23 дня)

[Q] 

[Профиль]  [ЛС] 

UncleFather

Легенда

Пост 24-Мар-2013 20:13 (спустя 1 день 3 часа)

[Q] 


_________________
Одни боялись Пью, другие - Билли Бонса, а меня... меня боялся сам Флинт
[Профиль]  [ЛС] 

cergo ®

Гроза морей

20035

Пост 24-Мар-2013 20:25 (спустя 11 минут)

[Q] 

Wolf111, UncleFather, Elfrei, ВованСидорыч, aa az
[Профиль]  [ЛС] 

Elfrei

Штурман

Пост 25-Июл-2013 18:51 (спустя 4 месяца)

[Q] 

Были в Сочи с детьми. Увидели бронзовые фигуры персонажей фильма у морского порта. Дети заинтересовались кто это. Скачал фильм посмотрели все вместе детям понравилось
[Профиль]  [ЛС] 

ВованСидорыч

Шкипер

Пост 15-Сен-2013 18:09 (спустя 1 месяц 20 дней)

[Q] 

спасибо большое!!!!
[Профиль]  [ЛС] 

UncleFather

Легенда

Пост 26-Янв-2014 07:19 (спустя 4 месяца 10 дней)

[Q] 

400850Были в Сочи с детьми. Увидели бронзовые фигуры персонажей фильма у морского порта. Дети заинтересовались кто это. Скачал фильм посмотрели все вместе детям понравилось
а мы не видели(((((
может их недавно поставили?

_________________
Одни боялись Пью, другие - Билли Бонса, а меня... меня боялся сам Флинт
[Профиль]  [ЛС] 

Dominik

Морской Волк

68

Пост 25-Апр-2014 22:08 (спустя 2 месяца 30 дней)

[Q] 

Лови бочку
Раздающему респект!

_________________
Раньше удивляло хамство, теперь удивляет вежливость!
[Профиль]  [ЛС] 

UncleFather

Легенда

Пост 10-Май-2014 06:52 (спустя 14 дней)

[Q] 

Зная тексты наизусть, все равно будем не раз пересматривать такие шедевры. !COOL!

_________________
Одни боялись Пью, другие - Билли Бонса, а меня... меня боялся сам Флинт
[Профиль]  [ЛС] 

alex denver71

Флибустьер

Пост 16-Авг-2014 15:23 (спустя 3 месяца 6 дней)

[Q] 

Автору респект!!! Фильм на все времена!!!Смотреть всем!!!Супер!!! ay
[Профиль]  [ЛС] 

R_O_Z_A

Морской Волк

Пост 25-Фев-2015 23:42 (спустя 6 месяцев 9 дней)

[Q] 

Спасибо!!! прекрасная комедия
[Профиль]  [ЛС] 
Показать сообщения:    
Ответить на тему

Текущее время: Сегодня 18:03

Часовой пояс: GMT + 4



Вы не можете начинать темы
Вы не можете отвечать на сообщения
Вы не можете редактировать свои сообщения
Вы не можете удалять свои сообщения
Вы не можете голосовать в опросах
Вы не можете прикреплять файлы к сообщениям
Вы не можете скачивать файлы

▼ Вниз