ML
     
  Уважаемый Гость!
Вы можете поддержать проект и зарегистрироваться у наших партнеров - онлайн-стратегия MyLands. При регистрации в игре Вы получите код, который сможете активировать после регистрации на pirat.ca и получить 1000 дублонов.

Ваш код:
6f9ab67d502902cc72a06c406977ddb589b7f39d
 
     

Вертикаль (Борис Дуров, Станислав Говорухин) [1966 г., драма, DVDRip]

Ответить на тему
 
Автор
Сообщение

Пост 11-Фев-2013 21:08

[Q] 

Bile

-Вертикаль-- Производство: СССР, Одесская киностудия
Режиссер: Борис Дуров, Станислав Говорухин
Жанр: драма
Год выпуска: 1966 г.
Продолжительность: 01:12:47
В ролях: Маргарита Кошелева, Геннадий Воропаев, Александр Фадеев, Георгий Кульбуш, Лариса Лужина, Бухути Закариадзе, Владимир Высоцкий, Расми Джабраилов, Светлана Живанкова-Описание: Группе альпинистов, идущих на штурм непокоренной кавказской вершины, пика Ор-Тау, послан сигнал о немедленном возвращении: надвигается грозовой циклон. Связист скрывает от товарищей это предупреждение, и они оказываются в критической ситуации. Трагедии удается избежать только благодаря мужеству спасателей и опыту самих спортсменов…-
Качество видео: DVDRip
Контейнер: AVI
Видео кодек: XviD
Аудио кодек: AC3
Видео: 672x304 (2.21:1), 23.976 fps, XviD build 64 ~1749 kbps avg, 0.36 bit/pixel
Аудио: 48 kHz, AC3 Dolby Digital, 3/2 (L,C,R,l,r) + LFE ch, ~384 kbps
Cубтитры: отсутствуют
General
Полное имя : Vertikal.1966..avi
Формат : AVI
Формат/Информация : Audio Video Interleave
Размер файла : 1.09 GiB
Продолжительность : 1h 12mn
Общий поток : 2 143 Kbps
Программа кодирования : VirtualDubMod 1.5.10.3 | www.virtualdub-fr.org || (build 2550/release)
Библиотека кодирования : VirtualDubMod build 2550/release
Video
Идентификатор : 0
Формат : MPEG-4 Visual
Профиль формата : Advanced [email protected]
Параметр BVOP формата : 1
Параметр QPel формата : No
Параметр GMC формата : No warppoints
Параметр матрицы формата : Default (MPEG)
Идентификатор кодека : XVID
Идентификатор кодека/Подсказка : XviD
Продолжительность : 1h 12mn
Битрейт : 1 750 Kbps
Ширина : 672 pixels
Высота : 304 pixels
Соотношение сторон : 2.2:1
Частота кадров : 23.976 fps
Цветовое пространство : YUV
Субдискретизация насыщенности : 4:2:0
Битовая глубина : 8 bits
Тип развёртки : Progressive
Метод сжатия : Lossy
Бит/(Пиксели*Кадры) : 0.357
Размер потока : 911 MiB (82%)
Библиотека кодирования : XviD 64
Audio
Идентификатор : 1
Формат : AC-3
Формат/Информация : Audio Coding 3
Расширение режима : CM (complete main)
Параметр Endianness формата : Big
Идентификатор кодека : 2000
Продолжительность : 1h 12mn
Вид битрейта : Constant
Битрейт : 384 Kbps
Каналы : 6 channels
Расположение каналов : Front: L C R, Side: L R, LFE
Частота : 48.0 KHz
Битовая глубина : 16 bits
Метод сжатия : Lossy
Размер потока : 200 MiB (18%)
Выравнивание : Split accross interleaves
Продолжительность промежутка : 42 ms (1.00 video frame)
Время предзагрузки промежутка : 500 ms
Download / Скачать

Хотите скачать бесплатно? Зарегистрируйтесь на сайте (ссылка на регистрацию). Pirat.ca - самый быстрый торрент трекер в рунете!

Как скачивать  ·   Что такое торрент  ·   Рейтинг и ограничения

Пост 11-Фев-2013 22:59 (спустя 1 час 51 минута)

Топик был перенесен из форума Наше кино (Трюм) в форум Золотая коллекция

erchine
 

UncleFather

Легенда

Пост 24-Мар-2013 20:15 (спустя 1 месяц 12 дней)

[Q] 


_________________
Одни боялись Пью, другие - Билли Бонса, а меня... меня боялся сам Флинт
[Профиль]  [ЛС] 
Показать сообщения:    
Ответить на тему

Текущее время: Сегодня 16:31

Часовой пояс: GMT + 4



Вы не можете начинать темы
Вы не можете отвечать на сообщения
Вы не можете редактировать свои сообщения
Вы не можете удалять свои сообщения
Вы не можете голосовать в опросах
Вы не можете прикреплять файлы к сообщениям
Вы не можете скачивать файлы

▼ Вниз