ML
     
  Уважаемый Гость!
Вы можете поддержать проект и зарегистрироваться у наших партнеров - онлайн-стратегия MyLands. При регистрации в игре Вы получите код, который сможете активировать после регистрации на pirat.ca и получить 1000 дублонов.

Ваш код:
0fcd44bd35319f69313aa6e53b31c51cbff1c942
 
     

Солярис (Solaris) (Андрей Тарковский) [1972 г., фантастика, драма, мелодрама, детектив, приключения, HDRip-AVC]

Ответить на тему
 
Автор
Сообщение

Пост 22-Сен-2013 13:40

[Q] 

NEVO

Лоцман

-Солярис (Solaris)-- Производство: СССР
Жанр: фантастика, драма, мелодрама, детектив, приключения
Год выпуска: 1972 г.
Продолжительность: 02:46:54
Российская премьера: 20 марта 1972
Дата выхода DVD: 20 июня 2013
Дата выхода Blu-Ray: 4 сентября 2012-Режиссер: Андрей Тарковский
В ролях: Донатас Банионис, Наталья Бондарчук, Юри Ярвет, Владислав Дворжецкий, Николай Гринько, Анатолий Солоницын, Ольга Барнет, Виталик Кердимун, Ольга Кизилова, Татьяна Малых-Описание:
В далеком космосе есть практически не изученная планета Солярис. Почти вся поверхность планеты покрыта океаном. На станции, находящейся около этой планеты начинают происходить странные события. Обитатели станции видят то, чего на станции никак быть не может. Когда на станцию прибывают члены новой экспедиции, то застают не научную станцию, а сумасшедший дом, но и сами через несколько дней начинают видеть такое, от чего недолго и с ума сойти. Что же происходит, может быть во всем виновата планета, которая виднеется в иллюминаторе станции?-
Качество видео: HDRip
Контейнер: MKV
Видео кодек: H.264
Аудио кодек: AC3
Видео: 1052 Кбит/сек, 724*304 (2,35:1), в 23,976 кадр/сек, AVC
Аудио: Russian, 192 Кбит/сек, 48,0 КГц, 16 бит, 1 канал, AC-3
Cубтитры: отсутствуют
Каннский кинофестиваль, 1972 год,
Большой приз жюри
Приз международной ассоциации кинокритиков (ФИПРЕССИ)
Номинации (1):
Золотая пальмовая ветвь
Код:
Общее
Уникальный идентификатор : 238759646064856034697246284967472251974 (0xB39F6F686647B2C9A145F0B9A837C446)
Полное имя : D:\торрент-раздачи\Soljaris_1972_HDRip_AVC.mkv
Формат : Matroska
Версия формата : Version 2
Размер файла : 1,45 Гбайт
Продолжительность : 2 ч. 46 м.
Общий поток : 1246 Кбит/сек
Название фильма : Soljaris 1972
Дата кодирования : UTC 2012-11-27 19:31:09
Программа кодирования : mkvmerge v5.6.0 ('Kenya Kane') built on May 27 2012 16:44:04
Библиотека кодирования : libebml v1.2.3 + libmatroska v1.3.0
Видео
Идентификатор : 1
Формат : AVC
Формат/Информация : Advanced Video Codec
Профиль формата : [email protected]
Параметр CABAC формата : Да
Параметр ReFrames формата : 10 кадров
Идентификатор кодека : V_MPEG4/ISO/AVC
Продолжительность : 2 ч. 46 м.
Битрейт : 1052 Кбит/сек
Ширина : 724 пикселя
Высота : 304 пикселя
Соотношение сторон : 2,40:1
Режим частоты кадров : Постоянный
Частота кадров : 23,976 кадра/сек
Цветовое пространство : YUV
Субдискретизация насыщенности : 4:2:0
Битовая глубина : 8 бит
Тип развёртки : Прогрессивная
Бит/(Пиксели*Кадры) : 0.199
Размер потока : 1,20 Гбайт (83%)
Библиотека кодирования : x264 core 125 r2200 999b753
Настройки программы : cabac=1 / ref=10 / deblock=1:-2:-1 / analyse=0x3:0x113 / me=umh / subme=9 / psy=1 / psy_rd=1.00:0.05 / mixed_ref=1 / me_range=32 / chroma_me=1 / trellis=2 / 8x8dct=1 / cqm=0 / deadzone=21,11 / fast_pskip=0 / chroma_qp_offset=-3 / threads=8 / lookahead_threads=1 / sliced_threads=0 / nr=0 / decimate=0 / interlaced=0 / bluray_compat=0 / constrained_intra=0 / bframes=12 / b_pyramid=2 / b_adapt=2 / b_bias=0 / direct=1 / weightb=1 / open_gop=0 / weightp=2 / keyint=240 / keyint_min=23 / scenecut=40 / intra_refresh=0 / rc_lookahead=40 / rc=2pass / mbtree=1 / bitrate=1052 / ratetol=1.0 / qcomp=0.60 / qpmin=10 / qpmax=51 / qpstep=4 / cplxblur=20.0 / qblur=0.5 / vbv_maxrate=50000 / vbv_bufsize=50000 / nal_hrd=none / ip_ratio=1.40 / aq=1:1.00
Язык : English
Default : Да
Forced : Нет
Аудио
Идентификатор : 2
Формат : AC-3
Формат/Информация : Audio Coding 3
Расширение режима : CM (complete main)
Параметр Endianness формата : Big
Идентификатор кодека : A_AC3
Продолжительность : 2 ч. 46 м.
Вид битрейта : Постоянный
Битрейт : 192 Кбит/сек
Каналы : 1 канал
Расположение каналов : Front: C
Частота : 48,0 КГц
Битовая глубина : 16 бит
Метод сжатия : С потерями
Размер потока : 229 Мбайт (15%)
Язык : Russian
Default : Да
Forced : Нет
Download / Скачать

Хотите скачать бесплатно? Зарегистрируйтесь на сайте (ссылка на регистрацию). Pirat.ca - самый быстрый торрент трекер в рунете!

Как скачивать  ·   Что такое торрент  ·   Рейтинг и ограничения



Последний раз редактировалось: NEVO (2013-09-22 17:29), всего редактировалось 1 раз

KadaFFi

Корсар

Пост 22-Сен-2013 15:48 (спустя 2 часа 7 минут)

[Q] 

посмотрим...
Всем качать!!! Спасибо!!!

_________________
[Профиль]  [ЛС] 

Пост 22-Сен-2013 18:37 (спустя 2 часа 49 минут)

Топик был перенесен из форума Наше кино (Трюм) в форум Золотая коллекция
kugesan
 

olezhka

Морской Волк

Пост 27-Дек-2013 21:51 (спустя 3 месяца 5 дней)

[Q] 

скорости не хватает(((
[Профиль]  [ЛС] 

Vintorezov REG 39

Легенда

176

Пост 29-Ноя-2014 12:43 (спустя 11 месяцев 1 день)

[Q] 

Фильм старенький и на любителя .
[Профиль]  [ЛС] 

pozdnyakoff75

Гроза морей

2802

Пост 25-Янв-2016 01:45 (спустя 1 год 1 месяц)

[Q] 

Vintorezov REG 39, Все хорошее новенькое, это давно забытое старенькое. Офигенский фантастиш.
[Профиль]  [ЛС] 
Показать сообщения:    
Ответить на тему

Текущее время: Сегодня 02:10

Часовой пояс: GMT + 4



Вы не можете начинать темы
Вы не можете отвечать на сообщения
Вы не можете редактировать свои сообщения
Вы не можете удалять свои сообщения
Вы не можете голосовать в опросах
Вы не можете прикреплять файлы к сообщениям
Вы не можете скачивать файлы

▼ Вниз