ML
     
  Уважаемый Гость!
Вы можете поддержать проект и зарегистрироваться у наших партнеров - онлайн-стратегия MyLands. При регистрации в игре Вы получите код, который сможете активировать после регистрации на pirat.ca и получить 1000 дублонов.

Ваш код:
0fcd44bd35319f69313aa6e53b31c51cbff1c942
 
     

Приходите завтра (Евгений Ташков) [1962 г., комедия, SATRip] [Цветная версия]

Ответить на тему
 
Автор
Сообщение

Пост 10-Окт-2013 18:38

[Q] 

erchine

-Приходите завтра
Цветная версия
- Производство: СССР
Режиссер: Евгений Ташков
Жанр: комедия
Год выпуска: 1962 г.
Продолжительность: 01:32:45
В ролях: Екатерина Савинова, Анатолий Папанов, Борис Бибиков, Антонина Максимова, Юрий Горобец, Надежда Животова, Александр Ширвиндт, Юрий Белов, Александра Денисова, Борис Коковкин
Описание: Кинокомедия о судьбе простой, талантливой девушки Фроси, приехавшей учиться в Москву из небольшого сибирского села, о том, как она добилась поступления в консерваторию.
КиноПоиск
Качество видео: SATRip (Rip by Dizell2102)
Контейнер: AVI
Видео кодек: XviD
Аудио кодек: MP3
Видео: Xvid 720x400 (16:9) 25fps 1893 Kbps 0.263 bit/pixel
Аудио: MP3 48000Hz stereo 192kbps
Cубтитры: отсутствуют
Общее
Полное имя : H:\Приходите завтра.avi
Формат : AVI
Формат/Информация : Audio Video Interleave
Профиль формата : OpenDML
Размер файла : 1,36 Гбайт
Продолжительность : 1 ч. 32 м.
Общий поток : 2100 Кбит/сек
Программа кодирования : XviD4PSP 6.0 / 54.29.105
Видео
Идентификатор : 0
Формат : MPEG-4 Visual
Профиль формата : Advanced [email protected]
Параметр BVOP формата : 1
Параметр QPel формата : Нет
Параметр GMC формата : Без точки перехода
Параметр матрицы формата : Default (H.263)
Идентификатор кодека : XVID
Идентификатор кодека/Подсказка : XviD
Продолжительность : 1 ч. 32 м.
Битрейт : 1893 Кбит/сек
Ширина : 720 пикселей
Высота : 400 пикселей
Соотношение сторон : 16:9
Частота кадров : 25,000 кадров/сек
Цветовое пространство : YUV
Субдискретизация насыщенности : 4:2:0
Битовая глубина : 8 бит
Тип развёртки : Чересстрочная
Порядок развёртки : Верхнее поле первое
Метод сжатия : С потерями
Бит/(Пиксели*Кадры) : 0.263
Размер потока : 1,23 Гбайт (90%)
Библиотека кодирования : XviD 64
Аудио
Идентификатор : 1
Формат : MPEG Audio
Версия формата : Version 1
Профиль формата : Layer 3
Режим : Joint stereo
Расширение режима : MS Stereo
Идентификатор кодека : 55
Идентификатор кодека/Подсказка : MP3
Продолжительность : 1 ч. 32 м.
Вид битрейта : Постоянный
Битрейт : 192 Кбит/сек
Каналы : 2 канала
Частота : 48,0 КГц
Метод сжатия : С потерями
Размер потока : 127 Мбайт (9%)
Выравнивание : Соединение по промежуткам
Продолжительность промежутка : 24 мс. (0,60 видеокадр)
Библиотека кодирования : LAME3.99.4™€ЁuD;ЎRЮ
Download / Скачать

Хотите скачать бесплатно? Зарегистрируйтесь на сайте (ссылка на регистрацию). Pirat.ca - самый быстрый торрент трекер в рунете!

Как скачивать  ·   Что такое торрент  ·   Рейтинг и ограничения

ivan836

Морской Волк

Пост 10-Окт-2013 22:27 (спустя 3 часа)

[Q] 

ay ax
[Профиль]  [ЛС] 

wirtual

Гроза морей

Пост 12-Окт-2013 07:42 (спустя 1 день 9 часов)

[Q] 

ремастеринг ci

_________________
не будешь делиться - останешься одноклеточным
[Профиль]  [ЛС] 

Faustello

Шкипер

Пост 04-Янв-2014 01:07 (спустя 2 месяца 22 дня)

[Q] 

Спасибо! классика в цвете!)
[Профиль]  [ЛС] 

Vintorezov REG 39

Легенда

176

Пост 29-Ноя-2014 12:30 (спустя 10 месяцев 25 дней)

[Q] 

Супер фильм спасибо . Лови бочку
[Профиль]  [ЛС] 

alex denver71

Флибустьер

Пост 02-Янв-2015 16:38 (спустя 1 месяц 3 дня)

[Q] 

Автору респект!!! Да уж классика в цвете!!! Фильм бесподобен!!! Супер!
[Профиль]  [ЛС] 

Skala973

Корсар

Пост 10-Май-2015 05:37 (спустя 4 месяца 7 дней)

[Q] 

Фильм вообще исключительный! От души смотришь. А самое что огорчает - судьба главной героини. Вот ведь как сложилось по жизни. А казалось что после такого старта, будет широкая дорога.
И за раздачу спасибо.
[Профиль]  [ЛС] 
Показать сообщения:    
Ответить на тему

Текущее время: Сегодня 02:11

Часовой пояс: GMT + 4



Вы не можете начинать темы
Вы не можете отвечать на сообщения
Вы не можете редактировать свои сообщения
Вы не можете удалять свои сообщения
Вы не можете голосовать в опросах
Вы не можете прикреплять файлы к сообщениям
Вы не можете скачивать файлы

▼ Вниз