ML
     
  Уважаемый Гость!
Вы можете поддержать проект и зарегистрироваться у наших партнеров - онлайн-стратегия MyLands. При регистрации в игре Вы получите код, который сможете активировать после регистрации на pirat.ca и получить 1000 дублонов.

Ваш код:
db0e0ad91548759ffeb9bb88bed405e1a4b3c165
 
     

Здравствуйте, я ваша тётя! (Виктор Титов) [1975 г., Комедия, музыкальный фильм, DVDRip]

Ответить на тему
 
Автор
Сообщение

Пост 31-Дек-2011 14:48

[Q] 

avzaytsev

Морской Волк

Здравствуйте, я ваша тётя!
Год выпуска: 1975
Мировая премьера: 26 декабря 1975
Производство: СССР
Жанр: Комедия, музыкальный фильм
Продолжительность: 01:37:29
Режиссер: Виктор Титов
В ролях: Александр Калягин, Армен Джигарханян, Михаил Любезнов, Олег Шкловский, Михаил Козаков, Тамара Носова, Татьяна Веденеева, Татьяна Васильева, Галина Орлова, Валентин Гафт
Описание: Сын полковника Честнея Джеки страстно любит Бетти, а его друг Чарли влюблен в Энни, и они хотят пожениться. Однако опекун девушек, грубый и жадный судья Кригс не дает согласия на брак. Милостивая судьба посылает друзьям подарок в виде незадачливого воришки Бабса, который, переодевшись в женское платье, пытается скрыться в доме полковника от полиции. Теперь, опасаясь разоблачения, он вынужден играть роль тетушки Чарли, эксцентричной миллионерши из Бразилии, на которой судья Кригс "мечтал жениться с самого детства"...
IMDB, КиноПоиск
Источник/Качество: DVDRip
Формат: AVI
Видео кодек: DivX
Аудио кодек: MP3
Видео: 720x528 (1.36:1), 25 fps, DivX Codec 5.2.1 alpha ~860 kbps avg, 0.09 bit/pixel
Аудио: 44.100 kHz, MPEG Layer 3, 2 ch, ~128.00 kbps avg
Общее
Полное имя : Здравствуйте, я ваша тётя.avi
Формат : AVI
Формат/Информация : Audio Video Interleave
Размер файла : 698 Мбайт
Продолжительность : 1 ч. 37 м.
Режим общего битрейта : Переменный
Общий поток : 1001 Кбит/сек
Видео
Идентификатор : 0
Формат : MPEG-4 Visual
Параметр BVOP формата : 1
Параметр QPel формата : Нет
Параметр GMC формата : Без точки перехода
Параметр матрицы формата : Default (H.263)
Режим смешивания : Сжатый битовый поток
Идентификатор кодека : DX50
Идентификатор кодека/Подсказка : DivX 5
Продолжительность : 1 ч. 37 м.
Битрейт : 857 Кбит/сек
Ширина : 720 пикселей
Высота : 528 пикселей
Соотношение сторон : 4:3
Частота кадров : 25,000 кадров/сек
Цветовое пространство : YUV
Субдискретизация насыщенности : 4:2:0
Битовая глубина : 8 бит
Тип развёртки : Прогрессивная
Метод сжатия : С потерями
Бит/(Пиксели*Кадры) : 0.090
Размер потока : 598 Мбайт (86%)
Заголовок : Video
Библиотека кодирования : DivX 5.2.1 Alpha (UTC 2004-09-08)
Аудио
Идентификатор : 1
Формат : MPEG Audio
Версия формата : Version 1
Профиль формата : Layer 3
Режим : Joint stereo
Расширение режима : MS Stereo
Идентификатор кодека : 55
Идентификатор кодека/Подсказка : MP3
Продолжительность : 1 ч. 37 м.
Вид битрейта : Переменный
Битрейт : 128 Кбит/сек
Каналы : 2 канала
Частота : 44,1 КГц
Метод сжатия : С потерями
Размер потока : 91,5 Мбайт (13%)
Выравнивание : Соединение по промежуткам
Продолжительность промежутка : 26 мс. (0,65 видеокадр)
Время предзагрузки промежутка : 466 мс.
Заголовок : Audio





Download / Скачать

Хотите скачать бесплатно? Зарегистрируйтесь на сайте (ссылка на регистрацию). Pirat.ca - самый быстрый торрент трекер в рунете!

Как скачивать  ·   Что такое торрент  ·   Рейтинг и ограничения

Пост 31-Дек-2011 14:54 (спустя 5 минут)

Топик был перенесен из форума Наше Кино в форум Золотая коллекция

Skinwalker
 

Принц Датский

Корсар

Пост 31-Дек-2011 17:17 (спустя 2 часа 28 минут)

[Q] 

после этого фильма я влюбился в Веденееву!спасибо
а раздачи так и нет!!!

_________________
[Профиль]  [ЛС] 

dimkoba

35106

Пост 18-Янв-2012 23:11 (спустя 18 дней)

[Q] 

самая яркий фильм Калягина

_________________
[Профиль]  [ЛС] 

RIIDDIK

Шкипер

84

Пост 10-Фев-2012 19:04 (спустя 22 дня)

[Q] 

[Профиль]  [ЛС] 

abc7

Гроза морей

464

Пост 10-Фев-2012 22:51 (спустя 3 часа)

[Q] 

[Профиль]  [ЛС] 

sd535

Флибустьер

1796

Пост 12-Дек-2012 12:35 (спустя 10 месяцев 1 день)

[Q] 

Фильм разобран на цитаты
[Профиль]  [ЛС] 

UncleFather

Легенда

Пост 17-Янв-2014 14:17 (спустя 1 год 1 месяц)

[Q] 

И правда - "золотая" коллекция. Спасибо!

_________________
Одни боялись Пью, другие - Билли Бонса, а меня... меня боялся сам Флинт
[Профиль]  [ЛС] 

ment

Шкипер

Пост 30-Янв-2014 20:39 (спустя 13 дней)

[Q] 

Прикольный фильмец!!!
Добавлено спустя 1 минута:
смотрите все! !COOL!
[Профиль]  [ЛС] 

Hippopotam

Корсар

Пост 27-Фев-2014 12:34 (спустя 27 дней)

[Q] 

Хрестоматия комедии!
[Профиль]  [ЛС] 

Феонолини

Шкипер

Пост 18-Апр-2014 19:52 (спустя 1 месяц 19 дней)

[Q] 

Классика советского кино,чье название стало мемом и поговоркой)
Эй, вернитесь на раздачу...

_________________
Где есть свет, всегда есть тень. Под светом счастья... Всегда есть тень отчаяния ...
Хун Мин
[Профиль]  [ЛС] 

UncleFather

Легенда

Пост 10-Май-2014 06:57 (спустя 21 день)

[Q] 

И еще раз посмотрю это кино. Спасибо большое. Супер!

_________________
Одни боялись Пью, другие - Билли Бонса, а меня... меня боялся сам Флинт
[Профиль]  [ЛС] 

Мегачувак

Штурман

Пост 09-Сен-2014 15:49 (спустя 3 месяца 30 дней)

[Q] 

Супер кино, смотреть можно в любое время
[Профиль]  [ЛС] 
Показать сообщения:    
Ответить на тему

Текущее время: Сегодня 08:11

Часовой пояс: GMT + 4



Вы не можете начинать темы
Вы не можете отвечать на сообщения
Вы не можете редактировать свои сообщения
Вы не можете удалять свои сообщения
Вы не можете голосовать в опросах
Вы не можете прикреплять файлы к сообщениям
Вы не можете скачивать файлы

▼ Вниз