ML
     
  Уважаемый Гость!
Вы можете поддержать проект и зарегистрироваться у наших партнеров - онлайн-стратегия MyLands. При регистрации в игре Вы получите код, который сможете активировать после регистрации на pirat.ca и получить 1000 дублонов.

Ваш код:
47bfc18b89c74e4ae0d974e9b6943639e2bff08e
 
     

Аты-баты, шли солдаты (Леонид Быков) [1976 г., драма, военный, DVD9, PAL]

Ответить на тему
 
Автор
Сообщение

Пост 12-Дек-2013 21:14

[Q] 

vasilich619

Флибустьер

-Аты-баты, шли солдаты-- Производство: СССР, Студия Довженко
Режиссер: Леонид Быков
Жанр: драма, военный
Год выпуска: 1976 г.
Продолжительность: 01:22:01
Премьера в СССР: 25 апреля 1977
Дата выхода DVD: 27 февраля 2009, «Азимут»
В ролях: Леонид Быков, Николай Гринько, Владимир Конкин, Елена Шанина, Евгения Уралова, Иван Гаврилюк, Николай Сектименко, Отабек Ганиев, Наталья Наум, Борис Химичев...
Роли дублировали: Виталий Дорошенко.-Описание: Они погибли в 1944 году, их было всего восемнадцать человек — комсомольский взвод, остановивший колонну немецких танков.
Трагическое и комедийное, героическое и лирическое сплелись на экране в необычную ткань повествования об отцах, навсегда оставшихся молодыми, и о детях, пришедших туда, где ровно тридцать лет назад приняли свой последний смертный бой самые родные для них люди…-Сэмпл КиноПоиск
Качество видео: DVD9
Контейнер: DVD Video
Видео кодек: MPEG2
Аудио кодек: AC3
Видео: 720x576 PAL (4:3), 25.000 fps, MPEG 2, 8 500 Kbps (0.714 bit/pixel)
Формат DVD: PAL
Аудио: Русский, оригинал, 48.0 KHz, 6 ch, AC-3, 448 Kbps, CBR
Аудио #2: русский, DTS, 48.0 KHz, 6 ch, 1 510 Kbps, CBR
Cубтитры: русские
(Диск с дополнениями)
«Мужчины не плачут, мужчины огорчаются»
Я уже очень много лет не «огорчался» над фильмом, но каков был мой восторг после просмотра данного творения.
Думаю никто не будет говорить о качестве съемки или разбирать фильм на фрагменты, это здесь совершенно не уместно. Фильм, как говорится, настоящий. Показывает войну, со стороны человеческих отношений, показывает то, что каждый из них герой, что были патриоты, были люди с большой буквы.
Настоящие мужчины и как то не современно звучит, настоящие женщины, но именно так и показано. Мужчина показывает мужество и характер, идет на смерть и душу рвет при просмотре этого, хочется самому туда, к ним и помочь ребятам. Женщины показывают мудрость, то чего сейчас очень мало в современном мире, чего не хватает не только женщинам но и мужчинам.
Пускай что то в фильме было не доработано, но я просто не могу сказать, что» что то» испортило фильм, это шедевр, фильм нужно смотреть всем, от ребенка до старика и каждый найдет что то близкое.
Лично я, если бы была возможность, поклонился Леониду Быкову лишь за то как он показал любовные отношения главных героев в данном фильме, нашел в этих кадрах много личного.
Земной поклон «Стоявшим насмерть во имя жизни»
General
Complete name : D:\ВОЕННЫЕ\Aty_baty_shli_soldaty_DVD9\Aty_baty_shli_soldaty\VTS_04_3.VOB
Format : MPEG-PS
File size : 1 024 MiB
Duration : 14mn 48s
Overall bit rate : 9 671 Kbps
Video
ID : 224 (0xE0)
Format : MPEG Video
Format version : Version 2
Format profile : [email protected]
Format settings, Matrix : Default
Duration : 14mn 47s
Bit rate mode : Variable
Bit rate : 7 329 Kbps
Nominal bit rate : 8 500 Kbps
Width : 720 pixels
Height : 576 pixels
Display aspect ratio : 4/3
Frame rate : 25.000 fps
Standard : PAL
Colorimetry : 4:2:0
Scan type : Interlaced
Scan order : Top Field First
Bits/(Pixel*Frame) : 0.707
Stream size : 776 MiB (76%)
Audio #1
ID : 128 (0x80)
Format : AC-3
Format/Info : Audio Coding 3
Duration : 14mn 48s
Bit rate mode : Constant
Bit rate : 448 Kbps
Channel(s) : 6 channels
Channel positions : Front: L C R, Surround: L R, LFE
Sampling rate : 48.0 KHz
Video delay : -566ms
Stream size : 47.4 MiB (5%)
Audio #2
ID : 137 (0x89)
Format : DTS
Format/Info : Digital Theater Systems
Duration : 14mn 48s
Bit rate mode : Constant
Bit rate : 1 510 Kbps
Channel(s) : 6 channels
Channel positions : Front: L C R, Surround: L R, LFE
Sampling rate : 48.0 KHz
Resolution : 24 bits
Video delay : -566ms
Stream size : 160 MiB (16%)
Menu
Format : DVD-Video
Download / Скачать

Хотите скачать бесплатно? Зарегистрируйтесь на сайте (ссылка на регистрацию). Pirat.ca - самый быстрый торрент трекер в рунете!

Как скачивать  ·   Что такое торрент  ·   Рейтинг и ограничения

Пост 12-Дек-2013 21:49 (спустя 34 минуты)

Топик был перенесен из форума Наше кино (Трюм) в форум Золотая коллекция
kugesan
 

CHARLI2236

1097

Пост 24-Янв-2014 15:27 (спустя 1 месяц 11 дней)

[Q] 

подключусь AntiZip 1

_________________
[Профиль]  [ЛС] 

ment

Шкипер

Пост 31-Янв-2014 17:47 (спустя 7 дней)

[Q] 

прикольно!! Вы лучшие!
[Профиль]  [ЛС] 
Показать сообщения:    
Ответить на тему

Текущее время: Сегодня 06:59

Часовой пояс: GMT + 4



Вы не можете начинать темы
Вы не можете отвечать на сообщения
Вы не можете редактировать свои сообщения
Вы не можете удалять свои сообщения
Вы не можете голосовать в опросах
Вы не можете прикреплять файлы к сообщениям
Вы не можете скачивать файлы

▼ Вниз