ML
     
  Уважаемый Гость!
Вы можете поддержать проект и зарегистрироваться у наших партнеров - онлайн-стратегия MyLands. При регистрации в игре Вы получите код, который сможете активировать после регистрации на pirat.ca и получить 1000 дублонов.

Ваш код:
0af2e2107bc9b5dd5ac2c09f9fc25e1a77c43887
 
     

Карнавальная ночь (Эльдар Рязанов) [1956 г., Комедия, мелодрама, музыкальный, DVDRip]

Ответить на тему
 
Автор
Сообщение

Пост 15-Дек-2013 12:11

[Q] 

cergo

Гроза морей

- Карнавальная ночь-- Производство: СССР, Мосфильм
Режиссер: Эльдар Рязанов
Жанр: Комедия, мелодрама, музыкальный
Год выпуска: 1956 г.
Продолжительность: 01:12:26
Российская премьера: 29 декабря 1956
Дата выхода DVD: 2 октября 2008, «Lizard Cinema Trade»
В ролях: Игорь Ильинский, Людмила Гурченко, Юрий Белов, Георгий Куликов, Сергей Филиппов, Ольга Власова, Андрей Тутышкин, Тамара Носова, Геннадий Юдин, Владимир Зельдин, Валентин Брылеев, Владимир Гусев (I), Семён Хмельницкий, Феликс Яворский, Елизавета Покровская, Валентина Шмелева, Евгения Шмелева, Ольга Шмелева, Борис Гусаков, Юрий Гусаков, Арутюн Акопян, Пётр Помазков, Тамара Соколова, Юрий Киреев, Владимир Пицек, Алексей Полевой, Валентина Ушакова, Инна Ульянова, Виктор Гераскин, Зоя Харабадзе, Борис Петкер-Описание: Знаменитая новогодняя комедия - творческий дебют молодого режиссёра Эльдара Рязанова, покорившего своим фильмом весь Советский Союз. Фильм сразу же был разобран на цитаты, юная Людмила Гурченко тотчас же стала знаменитой, а песни "Пять минут" и "Песенка о хорошем настроении" стали народными. Этот фильм стал одним из символов Нового Года, эстафету у которого через двадцать лет перехватила знаменитая "Ирония судьбы" всё того же Эльдара Рязанова. Красивая, добрая, весёлая и немного наивная советская музыкальная комедия - один из шедевров советского кинематографа и символов эпохи...-КиноПоиск
Качество видео: DVDRip
Контейнер: AVI
Видео кодек: XviD
Аудио кодек: AC3
Видео: 704x528 (1.33:1), 25 fps, XviD build 50 ~2247 kbps avg, 0.24 bit/pixel
Аудио: 48 kHz, AC3 Dolby Digital, 3/2 (L,C,R,l,r) + LFE ch, ~448 kbps
Cубтитры: отсутствуют
Общее
Полное имя : D:\Karnavalnaja.noch.1956.XviD.DVDRip.avi
Формат : AVI
Формат/Информация : Audio Video Interleave
Размер файла : 1,37 Гбайт
Продолжительность : 1 ч. 12 м.
Общий поток : 2705 Кбит/сек
Программа кодирования : VirtualDubMod 1.5.10.2 (build 2540/release)
Библиотека кодирования : VirtualDubMod build 2540/release
Видео
Идентификатор : 0
Формат : MPEG-4 Visual
Профиль формата : Advanced [email protected]
Параметр BVOP формата : 2
Параметр QPel формата : Нет
Параметр GMC формата : Без точки перехода
Параметр матрицы формата : Default (MPEG)
Идентификатор кодека : XVID
Идентификатор кодека/Подсказка : XviD
Продолжительность : 1 ч. 12 м.
Битрейт : 2247 Кбит/сек
Ширина : 704 пикселя
Высота : 528 пикселей
Соотношение сторон : 4:3
Частота кадров : 25,000 кадров/сек
Цветовое пространство : YUV
Субдискретизация насыщенности : 4:2:0
Битовая глубина : 8 бит
Тип развёртки : Прогрессивная
Метод сжатия : С потерями
Бит/(Пиксели*Кадры) : 0.242
Размер потока : 1,14 Гбайт (83%)
Библиотека кодирования : XviD 1.2.1 (UTC 2008-12-04)
Аудио
Идентификатор : 1
Формат : AC-3
Формат/Информация : Audio Coding 3
Расширение режима : CM (complete main)
Параметр Endianness формата : Big
Идентификатор кодека : 2000
Продолжительность : 1 ч. 12 м.
Вид битрейта : Постоянный
Битрейт : 448 Кбит/сек
Каналы : 6 каналов
Расположение каналов : Front: L C R, Side: L R, LFE
Частота : 48,0 КГц
Битовая глубина : 16 бит
Метод сжатия : С потерями
Размер потока : 232 Мбайт (17%)
Выравнивание : Разделение по промежуткам
Продолжительность промежутка : 40 мс. (1,00 видеокадр)
Время предзагрузки промежутка : 500 мс.
Download / Скачать

Хотите скачать бесплатно? Зарегистрируйтесь на сайте (ссылка на регистрацию). Pirat.ca - самый быстрый торрент трекер в рунете!

Как скачивать  ·   Что такое торрент  ·   Рейтинг и ограничения

Пост 15-Дек-2013 12:47 (спустя 36 минут)

Топик был перенесен из форума Наше кино (Трюм) в форум Золотая коллекция
kugesan
 

megamastor

2827

Пост 25-Дек-2013 07:19 (спустя 9 дней)

[Q] 

Отличный фильм! Качну под новый год посмотрю! Лови бочку
[Профиль]  [ЛС] 

cergo ®

Гроза морей

20055

Пост 29-Дек-2013 17:01 (спустя 4 дня)

[Q] 

466871Отличный фильм! Качну под новый год посмотрю!
aa az
[Профиль]  [ЛС] 

alex denver71

Флибустьер

Пост 13-Дек-2014 21:01 (спустя 11 месяцев 15 дней)

[Q] 

Автору респект!!! Один из лучших новогодних фильмов!!! Супер!
[Профиль]  [ЛС] 

R_O_Z_A

Морской Волк

Пост 25-Фев-2015 23:38 (спустя 2 месяца 12 дней)

[Q] 

Отличный фильм! Автору респект!!!
[Профиль]  [ЛС] 
Показать сообщения:    
Ответить на тему

Текущее время: Сегодня 00:04

Часовой пояс: GMT + 4



Вы не можете начинать темы
Вы не можете отвечать на сообщения
Вы не можете редактировать свои сообщения
Вы не можете удалять свои сообщения
Вы не можете голосовать в опросах
Вы не можете прикреплять файлы к сообщениям
Вы не можете скачивать файлы

▼ Вниз