ML
     
  Уважаемый Гость!
Вы можете поддержать проект и зарегистрироваться у наших партнеров - онлайн-стратегия MyLands. При регистрации в игре Вы получите код, который сможете активировать после регистрации на pirat.ca и получить 1000 дублонов.

Ваш код:
5af7de75d3db09b6a37bc8bab71b0e87ccde73d6
 
     

Жизнь и необычайные приключения солдата Ивана Чонкина (Иржи Менцель / Jiří Menze) [1994 г., Мелодрама, комедия, военный, сатирическая комедия, абсурд, гротеск, DVDRip]

Ответить на тему
 
Автор
Сообщение

Пост 25-Янв-2014 23:07

[Q] 

DENON2507

Гроза морей

-Жизнь и необычайные приключения солдата Ивана Чонкина-- Производство: Россия, Франция, Великобритания, Италия, Чехия
Режиссер: Иржи Менцель / Jiří Menze
Жанр: Мелодрама, комедия, военный, сатирическая комедия, абсурд, гротеск
Год выпуска: 1994 г.
Продолжительность: 01:44:07
Российская премьера: Премьера (мир) 9 ноября 1994
В ролях: Влaдимиp Ильин, Гeннaдий Haзapoв, Aлeкceй Жapкoв, Зинoвий Гepдт, Cepгeй Гapмaш, Вaлepий Зoлoтухин, Зoя Буpяк, Ивaн Pыжoв, Taтьянa Oшуpкoвa, Гaлинa Пeтpoвa, Aлeкcaндp Moхoв, Cepгeй Cтeпaнчeнкo, Mapия Винoгpaдoвa, Taтьянa Aгaфoнoвa, Oльгa Aнoхинa, Aвaнгapд Лeoнтьeв, Любoвь Pуднeвa, Юpий Дубpoвин, Мариан Лабуда- : Экранизация одноименной сатирической книги Владимира Войновича, широко известной в нашей стране. Картина удачно передала стилистику книги — абсурд и гротеск доведены до пропорций смешных до истерики, но лиризм при всем этом присутствует. Сравнить это можно только с похождениями бравого солдата Швейка.
Первая киноверсия знаменитого сатирического романа Владимира Войновича снята в Чехии знаменитым режиссером Иржи Менцелем необыкновенно деликатно и лирически. Летел себе по небу ероплан. Летел-летел, а потом взял да и сверзился на нашу родную советскую землю. Но не смертоубийственно сверзился, а так, из серии вынужденной посадки. Летчик, пережив кратковременный шок от общения с любопытными колхозниками, уехал в свою эскадрилью, а самолет так и остался торчать посреди поля, как торжество человеческой мысли над человеческим разумом.
-
Качество видео: DVDRip
Контейнер: AVI
Видео кодек: XviD
Аудио кодек: AC3
Видео: 720x440 (1.64:1), 25 fps, XviD build 73 ~1924 kbps avg, 0.24 bit/pixel
Аудио: 48 kHz, AC3 Dolby Digital, 2/0 (L,R) ch, ~192 kbps
Cубтитры: отсутствуют
Полноценное французское издание (лицензия) DVD9 от MK2 R2
В России этот фильм не выходил в прокат ни в кинотеатрах, ни на телевидении

Исходник: DVD9 PAL 16:9 (720x576) - andy763
Золотая медаль президента итальянского сената на Венецианском международном кинофестивале, 1994 (англ. Gold Medal, Venice International Film Festival, 1994).
В 1989 году к экранизации романа «Жизнь и необычайные приключения солдата Ивана Чонкина» готовился советский режиссер Эльдар Рязанов. Были поиски исполнителей, выбор натуры, многочисленные кинопробы, работа над эскизами декораций, поиск реквизита, подбор костюмов и был написан сценарий. Однако Эльдару Рязанову и студии «Мосфильм» не удалось договориться ни с Владимиром Войновичем, ни с правообладателем экранизации - английской фирмой «Portobello Production
Видео
Идентификатор : 0
Формат : MPEG-4 Visual
Профиль формата : Advanced [email protected]
Параметр BVOP формата : 1
Параметр QPel формата : Да
Параметр GMC формата : Без точки перехода
Параметр матрицы формата : Выборочная
Идентификатор кодека : XVID
Идентификатор кодека/Подсказка : XviD
Продолжительность : 1 ч. 44 м.
Битрейт : 1924 Кбит/сек
Ширина : 720 пикселей
Высота : 440 пикселей
Соотношение сторон : 1,636
Частота кадров : 25,000 кадров/сек
Цветовое пространство : YUV
Субдискретизация насыщенности : 4:2:0
Битовая глубина : 8 бит
Тип развёртки : Прогрессивная
Метод сжатия : С потерями
Бит/(Пиксели*Кадры) : 0.243
Размер потока : 1,40 Гбайт (91%)
Библиотека кодирования : XviD 73
Аудио
Идентификатор : 1
Формат : AC-3
Формат/Информация : Audio Coding 3
Расширение режима : CM (complete main)
Параметр Endianness формата : Big
Идентификатор кодека : 2000
Продолжительность : 1 ч. 44 м.
Вид битрейта : Постоянный
Битрейт : 192 Кбит/сек
Каналы : 2 канала
Расположение каналов : Front: L R
Частота : 48,0 КГц
Битовая глубина : 16 бит
Метод сжатия : С потерями
Размер потока : 143 Мбайт (9%)
Выравнивание : Разделение по промежуткам
Продолжительность промежутка : 40 мс. (1,00 видеокадр)
Время предзагрузки промежутка : 500 мс.
Download / Скачать

Хотите скачать бесплатно? Зарегистрируйтесь на сайте (ссылка на регистрацию). Pirat.ca - самый быстрый торрент трекер в рунете!

Как скачивать  ·   Что такое торрент  ·   Рейтинг и ограничения

Пост 26-Янв-2014 10:05 (спустя 10 часов)

Топик был перенесен из форума Наше кино (Трюм) в форум Золотая коллекция
kugesan
 

ment

Шкипер

Пост 31-Янв-2014 18:02 (спустя 5 дней)

[Q] 

да этот фильм моего детства
[Профиль]  [ЛС] 

DENON2507 ®

Гроза морей

2434

Пост 22-Авг-2014 12:43 (спустя 6 месяцев 21 день)

[Q] 

ment, и моей молодости. кассета дома лежит все еще.
[Профиль]  [ЛС] 
Показать сообщения:    
Ответить на тему

Текущее время: Сегодня 14:11

Часовой пояс: GMT + 4



Вы не можете начинать темы
Вы не можете отвечать на сообщения
Вы не можете редактировать свои сообщения
Вы не можете удалять свои сообщения
Вы не можете голосовать в опросах
Вы не можете прикреплять файлы к сообщениям
Вы не можете скачивать файлы

▼ Вниз