ML
     
  Уважаемый Гость!
Вы можете поддержать проект и зарегистрироваться у наших партнеров - онлайн-стратегия MyLands. При регистрации в игре Вы получите код, который сможете активировать после регистрации на pirat.ca и получить 1000 дублонов.

Ваш код:
a978488e62322cd72e113ab723b8a7fdc10eb9b9
 
     

Белое солнце пустыни (Владимир Мотыль) [1969 г., боевик, драма, мелодрама, WEB-DLRip]

Ответить на тему
 
Автор
Сообщение

Пост 16-Мар-2014 19:35

[Q] 

ShuLeR

Штурман

-Белое солнце пустыни-- Производство: СССР / Ленфильм, Мосфильм
Год выпуска: 1969 г.
Жанр: боевик, драма, мелодрама
Продолжительность: 01:20:10
Мировая премьера: 16 октября 1970
Российская премьера: 30 марта 1970
Дата выхода DVD: 18 декабря 2001
Перевод: Не требуется
Режиссер: Владимир Мотыль-В ролях: Анатолий Кузнецов, Спартак Мишулин, Кахи Кавсадзе, Павел Луспекаев, Раиса Куркина, Татьяна Федотова, Николай Годовиков, Муса Дудаев, Николай Бадьев, Владимир Кадочников-Описание: Бесконечная пустыня, боец Сухов, прикуривающий с динамитной шашки, нескладный Петруха с вечно заклинивающей трехлинейкой, обаятельный Верещагин, с надоевшей черной икрой и знаменитыми песнями-балладами, ловкий Саид с незабвенным «Стреляли», злодей Абдулла со своей бандой, любознательная Гульчатай, играющая с черепахою...-
Качество видео: WEB-DLRip
Контейнер: AVI
Видео кодек: XviD
Аудио кодек: AC3
Видео: 704x528, 2245 kbps, 25 fps, 0.242 Bits/Pixel
Аудио: 192 kbps, 2 ch, 48 kHz
Cубтитры: отсутствуют
Релиз группы: Dream Team
Рип от: ShuLeR
General
Complete name : H:TorrentsBeloe.solntse.pustyni.1970.WEB-DLRip.by.ShuLeR.avi
Format : AVI
Format/Info : Audio Video Interleave
File size : 1.37 GiB
Duration : 1h 20mn
Overall bit rate : 2 447 Kbps
Writing application : VirtualDubMod 1.5.10.3 | www.virtualdub-fr.org || (build 2550/release)
Writing library : VirtualDubMod build 2550/release
Video
ID : 0
Format : MPEG-4 Visual
Format profile : Advanced [email protected]
Format settings, BVOP : 1
Format settings, QPel : No
Format settings, GMC : No warppoints
Format settings, Matrix : Default (MPEG)
Codec ID : XVID
Codec ID/Hint : XviD
Duration : 1h 20mn
Bit rate : 2 245 Kbps
Width : 704 pixels
Height : 528 pixels
Display aspect ratio : 4:3
Frame rate : 25.000 fps
Color space : YUV
Chroma subsampling : 4:2:0
Bit depth : 8 bits
Scan type : Progressive
Compression mode : Lossy
Bits/(Pixel*Frame) : 0.242
Stream size : 1.26 GiB (92%)
Writing library : XviD 1.2.1 (UTC 2008-12-04)
Audio
ID : 1
Format : AC-3
Format/Info : Audio Coding 3
Mode extension : CM (complete main)
Format settings, Endianness : Big
Codec ID : 2000
Duration : 1h 20mn
Bit rate mode : Constant
Bit rate : 192 Kbps
Channel count : 2 channels
Channel positions : Front: L R
Sampling rate : 48.0 KHz
Bit depth : 16 bits
Compression mode : Lossy
Stream size : 110 MiB (8%)
Alignment : Split accross interleaves
Interleave, duration : 40 ms (1.00 video frame)
Interleave, preload duration : 500 ms
Download / Скачать

Хотите скачать бесплатно? Зарегистрируйтесь на сайте (ссылка на регистрацию). Pirat.ca - самый быстрый торрент трекер в рунете!

Как скачивать  ·   Что такое торрент  ·   Рейтинг и ограничения

Пост 17-Мар-2014 19:22 (спустя 23 часа)

Топик был перенесен из форума Зарубежное Кино (Трюм) в форум Золотая коллекция
erchine
 

StenST

Морской Волк

Пост 18-Мар-2014 03:15 (спустя 1 день 7 часов)

[Q] 

"Опять икра"! "...За родину обидно"!
Забираю! Ром в трюме! Спасибо!!!
Может кто с HD - качеством выложит?
[Профиль]  [ЛС] 

TERMOS

Легенда

12044

Пост 22-Мар-2014 14:52 (спустя 4 дня)

[Q] 

StenST, лови - Белое солнце пустыни (Владимир Мотыль) [1969 г., боевик, драма, мелодрама, комедия, приключения, военный, Blu-Ray, 1080p]

_________________
[Профиль]  [ЛС] 

StenST

Морской Волк

Пост 23-Мар-2014 01:42 (спустя 10 часов)

[Q] 

Cпасибо!
[Профиль]  [ЛС] 

masany82

Шкипер

Пост 17-Июл-2014 17:26 (спустя 3 месяца 25 дней)

[Q] 

товарищ Сухов говорил Супер!
[Профиль]  [ЛС] 
Показать сообщения:    
Ответить на тему

Текущее время: Сегодня 22:08

Часовой пояс: GMT + 4



Вы не можете начинать темы
Вы не можете отвечать на сообщения
Вы не можете редактировать свои сообщения
Вы не можете удалять свои сообщения
Вы не можете голосовать в опросах
Вы не можете прикреплять файлы к сообщениям
Вы не можете скачивать файлы

▼ Вниз