ML
     
  Уважаемый Гость!
Вы можете поддержать проект и зарегистрироваться у наших партнеров - онлайн-стратегия MyLands. При регистрации в игре Вы получите код, который сможете активировать после регистрации на pirat.ca и получить 1000 дублонов.

Ваш код:
0ea1bf889af42fca5f67d0a391efb3400850ad7c
 
     

Отец солдата (Резо Чхеидзе) [1964 г., военный, DVDRip]

Ответить на тему
 
Автор
Сообщение

Пост 17-Мар-2014 21:22

[Q] 

Мархуз

-Отец солдата-- Производство: СССР, Грузияфильм
Режиссер: Резо Чхеидзе
Жанр: военный
Год выпуска: 1964 г.
Продолжительность: 01:26:46
В ролях: Серго Закариадзе, Владимир Привальцев, Александр Назаров (II), Александр Лебедев, Владимир Колокольцев, Юрий Дроздов, Иван Косых, Виктор Косых, Виктор Уральский, Кетеван (Кето) Бочоришвили, Владимир Пицек, Петр Любешкин, Татьяна Сапожникова, Николай Бармин-Описание: Грузинский колхозник Георгий Махарашвили едет навестить раненого сына. Не застав сына в госпитале, отправляется на его поиски. Станв очевидцем военных событий, старик добивается, чтобы его приняли в ряды советских воинов. В одном из боев, отец встречает сына. Но встреча их кратковременна - сын погибает от осколка снаряда.-Качество видео: DVDRip
Контейнер: AVI
Видео кодек: DivX
Аудио кодек: AC3
Видео: 688x512; 1798 kbps; 25 fps; 0,204 bit/pixel
Аудио: 448.00 kbps; 48 kHz; 6 ch
Cубтитры: русские
Формат субтитров: hardsub (неотключаемые, на грузинскую речь)
Премия "Капитолийский Юпитер" на МКФ в Риме в 1967 году.
Приз за лучшую мужскую роль Серго Закариадзе на МКФ в Москве в 1965 году
Премия Ленинского комсомола Серго Закариадзе в 1965 году
Ленинская премия Серго Закариадзе в 1966 году
Общее
Полное имя : E:\Torrent\Otec_soldata_[Pirat.ca].torrent.avi
Формат : AVI
Формат/Информация : Audio Video Interleave
Размер файла : 1,37 Гбайт
Продолжительность : 1 ч. 26 м.
Общий поток : 2255 Кбит/сек
Программа кодирования : FairUse Wizard
Библиотека кодирования : The best and REALLY easy backup tool
Видео
Идентификатор : 0
Формат : MPEG-4 Visual
Параметр BVOP формата : 1
Параметр QPel формата : Нет
Параметр GMC формата : Без точки перехода
Параметр матрицы формата : Default (H.263)
Режим смешивания : Сжатый битовый поток
Идентификатор кодека : DX50
Идентификатор кодека/Подсказка : DivX 5
Продолжительность : 1 ч. 26 м.
Битрейт : 1798 Кбит/сек
Ширина : 688 пикселей
Высота : 512 пикселей
Соотношение сторон : 4:3
Частота кадров : 25,000 кадров/сек
Цветовое пространство : YUV
Субдискретизация насыщенности : 4:2:0
Битовая глубина : 8 бит
Тип развёртки : Прогрессивная
Метод сжатия : С потерями
Бит/(Пиксели*Кадры) : 0.204
Размер потока : 1,09 Гбайт (80%)
Библиотека кодирования : DivX 6.8.0 (UTC 2007-12-04)
Аудио
Идентификатор : 1
Формат : AC-3
Формат/Информация : Audio Coding 3
Расширение режима : CM (complete main)
Параметр Endianness формата : Big
Идентификатор кодека : 2000
Продолжительность : 1 ч. 26 м.
Вид битрейта : Постоянный
Битрейт : 448 Кбит/сек
Каналы : 6 каналов
Расположение каналов : Front: L C R, Side: L R, LFE
Частота : 48,0 КГц
Битовая глубина : 16 бит
Метод сжатия : С потерями
Размер потока : 278 Мбайт (20%)
Выравнивание : Разделение по промежуткам
Продолжительность промежутка : 40 мс. (1,00 видеокадр)
Время предзагрузки промежутка : 500 мс.
Раздача с 15.00 до 3.30 (время московское)
Download / Скачать

Хотите скачать бесплатно? Зарегистрируйтесь на сайте (ссылка на регистрацию). Pirat.ca - самый быстрый торрент трекер в рунете!

Как скачивать  ·   Что такое торрент  ·   Рейтинг и ограничения

Пост 17-Мар-2014 21:35 (спустя 13 минут)

Топик был перенесен из форума Наше кино (Трюм) в форум Золотая коллекция
kugesan
 

NektoWaso

Флибустьер

Пост 18-Мар-2014 19:32 (спустя 22 часа)

[Q] 

отличный фильм!!!! рекомендуется!!
[Профиль]  [ЛС] 

Мархуз ®

4505

Пост 30-Мар-2014 19:23 (спустя 11 дней)

[Q] 

NektoWaso, это не просто отличный фильм, это - ШЕДЕВР!!! ay

_________________

Счастье для всех, даром, и пусть никто не уйдёт обиженный
[Профиль]  [ЛС] 

Vintorezov REG 39

Легенда

176

Пост 29-Ноя-2014 12:19 (спустя 7 месяцев 29 дней)

[Q] 

Хорошее кино спасибо. Лови бочку
[Профиль]  [ЛС] 

alex denver71

Флибустьер

Пост 09-Янв-2015 08:08 (спустя 1 месяц 9 дней)

[Q] 

Автору респект!!! Лови бочку Шедевр-это мало сказано,за такой фильм Оскара нужно давать!!!
[Профиль]  [ЛС] 

R_O_Z_A

Морской Волк

Пост 26-Фев-2015 23:03 (спустя 1 месяц 17 дней)

[Q] 

ШЕДЕВР!!! Спасибо!!!
[Профиль]  [ЛС] 

Walt

Лоцман

Пост 06-Май-2015 23:38 (спустя 2 месяца 8 дней)

[Q] 

Спасибо за раздачу!!!
[Профиль]  [ЛС] 

Skala973

Корсар

Пост 10-Май-2015 05:25 (спустя 3 дня)

[Q] 

Один из моих любимых фильмов о войне. Да и так тоже. Мощнейшие актёры, колоссальный фильм. Наверно лучше снять нельзя...
[Профиль]  [ЛС] 
Показать сообщения:    
Ответить на тему

Текущее время: Сегодня 00:32

Часовой пояс: GMT + 4



Вы не можете начинать темы
Вы не можете отвечать на сообщения
Вы не можете редактировать свои сообщения
Вы не можете удалять свои сообщения
Вы не можете голосовать в опросах
Вы не можете прикреплять файлы к сообщениям
Вы не можете скачивать файлы

▼ Вниз