ML
     
  Уважаемый Гость!
Вы можете поддержать проект и зарегистрироваться у наших партнеров - онлайн-стратегия MyLands. При регистрации в игре Вы получите код, который сможете активировать после регистрации на pirat.ca и получить 1000 дублонов.

Ваш код:
34514219cfad5497a1822ecc1269bea77988f9aa
 
     

"Мерседес" уходит от погони (Юрий Ляшенко) [1980 г., военный, DVDRip]

Ответить на тему
 
Автор
Сообщение

Пост 20-Мар-2014 16:42

[Q] 

Мархуз

-"Мерседес" уходит от погони-- Производство: СССР, киностудия им. Довженко
Режиссер: Юрий Ляшенко
Жанр: военный
Год выпуска: 1980 г.
Продолжительность: 01:13:51
В ролях: Г.Юшко, М.Голубович, А.Рудаков, И.Ливанов, А.Барчук, Б.Юрченко, В.Пащенко, А.Горячев, А.Васильев, Ю.Мацарев, Х.Мандри, Р.Коткас, А.Лицитис-Описание: Советским разведчикам дано задание отправиться в тыл врага на рискованную боевую операцию, от успешного выполнения которой зависит судьба фронта. Переодевшись в немецкую форму, они садятся на трофейный "Мерседес" и пересекают линию фронта.
Их путь идёт по дорогам, патрулируемым фашистами, где каждый неверный шаг может привести к роковым последствиям.-Качество видео: DVDRip
Контейнер: AVI
Видео кодек: DivX
Аудио кодек: MP3
Видео: 640x320; 1188 kbps; 25.000 fps; 0.232 bits/pixel
Аудио: 128 kbps; 48000 Hz; 2 ch
Cубтитры: отсутствуют
Общее
Полное имя : E:\Torrent\''Mersedes''_uhodit_ot_pogoni_[Pirat.ca].torrent.avi
Формат : AVI
Формат/Информация : Audio Video Interleave
Размер файла : 700 Мбайт
Продолжительность : 1 ч. 13 м.
Общий поток : 1326 Кбит/сек
Программа кодирования : VirtualDubMod 1.5.10.2 (build 2540/release)
Библиотека кодирования : VirtualDubMod build 2540/release
Видео
Идентификатор : 0
Формат : MPEG-4 Visual
Параметр BVOP формата : 1
Параметр QPel формата : Нет
Параметр GMC формата : Без точки перехода
Параметр матрицы формата : Default (H.263)
Режим смешивания : Сжатый битовый поток
Идентификатор кодека : DX50
Идентификатор кодека/Подсказка : DivX 5
Продолжительность : 1 ч. 13 м.
Битрейт : 1188 Кбит/сек
Ширина : 640 пикселей
Высота : 320 пикселей
Соотношение сторон : 2,000
Частота кадров : 25,000 кадров/сек
Цветовое пространство : YUV
Субдискретизация насыщенности : 4:2:0
Битовая глубина : 8 бит
Тип развёртки : Прогрессивная
Метод сжатия : С потерями
Бит/(Пиксели*Кадры) : 0.232
Размер потока : 628 Мбайт (90%)
Библиотека кодирования : DivX 6.8.5 (UTC 2009-08-20)
Аудио
Идентификатор : 1
Формат : MPEG Audio
Версия формата : Version 1
Профиль формата : Layer 3
Режим : Joint stereo
Идентификатор кодека : 55
Идентификатор кодека/Подсказка : MP3
Продолжительность : 1 ч. 13 м.
Вид битрейта : Постоянный
Битрейт : 128 Кбит/сек
Каналы : 2 канала
Частота : 48,0 КГц
Метод сжатия : С потерями
Размер потока : 67,6 Мбайт (10%)
Выравнивание : Соединение по промежуткам
Продолжительность промежутка : 40 мс. (1,00 видеокадр)
Время предзагрузки промежутка : 504 мс.
Раздача с 15.00 до 3.30 (время московское)
Download / Скачать

Хотите скачать бесплатно? Зарегистрируйтесь на сайте (ссылка на регистрацию). Pirat.ca - самый быстрый торрент трекер в рунете!

Как скачивать  ·   Что такое торрент  ·   Рейтинг и ограничения

Пост 20-Мар-2014 17:10 (спустя 27 минут)

Топик был перенесен из форума Наше кино (Трюм) в форум Золотая коллекция
kugesan
 
Показать сообщения:    
Ответить на тему

Текущее время: Сегодня 07:55

Часовой пояс: GMT + 4



Вы не можете начинать темы
Вы не можете отвечать на сообщения
Вы не можете редактировать свои сообщения
Вы не можете удалять свои сообщения
Вы не можете голосовать в опросах
Вы не можете прикреплять файлы к сообщениям
Вы не можете скачивать файлы

▼ Вниз