ML
     
  Уважаемый Гость!
Вы можете поддержать проект и зарегистрироваться у наших партнеров - онлайн-стратегия MyLands. При регистрации в игре Вы получите код, который сможете активировать после регистрации на pirat.ca и получить 1000 дублонов.

Ваш код:
a261790f23fb05d13d060bdee9cb70d1451a6d3d
 
     

Никто не хотел умирать (Витаутас Жалакявичюс) [1965 г., боевик, TVRip]

Ответить на тему
 
Автор
Сообщение

Пост 20-Мар-2014 21:46

[Q] 

Мархуз

-Никто не хотел умирать-- Производство: СССР, Литовская киностудия
Режиссер: Витаутас Жалакявичюс
Жанр: боевик
Год выпуска: 1965 г.
Продолжительность: 01:38:06
В ролях: Казимирас Виткус, Эугения Шулгайте, Регимантас Адомайтис, Юозас Будрайтис, Альгимантас Масюлис, Бруно Оя, Донатас Банионис, Вия Артмане-Описание: Шёл второй послевоенный год. Но в литовских лесах еще прятались вооруженные банды из бывших полицейских и офицеров. Уже убиты четыре председателя сельсовета.
Теперь погиб еще один – старый Локис. На похоронах четверо его сыновей клянутся не покидать родную деревню до тех пор, пока не найдут убийц отца и не уничтожат банду Домового.-Качество видео: TVRip
Контейнер: AVI
Видео кодек: XviD
Аудио кодек: MP3
Видео: 512x288; 605 kbps; 29.970 fps; 0.137 bits/pixel
Аудио: 96,0 kbps; 32,0 kHz; 2 ch
Cубтитры: отсутствуют
1966 — главный приз Всесоюзного кинофестиваля в Киеве
1966 — премия Ленинского комсомола
1967 — Государственная премия СССР. Награждены автор сценария и режиссёр Витаутас Жалакявичюс, оператор Йонас Грицюс и актёры Донатас Банионис и Бруно Оя.
1967 — Лучший фильм 1966 года по опросу журнала "Советский экран".
Общее
Полное имя : E:\Torrent\Nikto_nexotel_umirat_[Pirat.ca].torrent.avi
Формат : AVI
Формат/Информация : Audio Video Interleave
Размер файла : 500 Мбайт
Продолжительность : 1 ч. 38 м.
Общий поток : 713 Кбит/сек
Программа кодирования : VirtualDubMod 1.5.4.1 (build 2178/release)
Библиотека кодирования : VirtualDub build 35390/release
Видео
Идентификатор : 0
Формат : MPEG-4 Visual
Профиль формата : Advanced [email protected]
Параметр BVOP формата : 1
Параметр QPel формата : Нет
Параметр GMC формата : Без точки перехода
Параметр матрицы формата : Default (MPEG)
Режим смешивания : Сжатый битовый поток
Идентификатор кодека : XVID
Идентификатор кодека/Подсказка : XviD
Продолжительность : 1 ч. 38 м.
Битрейт : 605 Кбит/сек
Ширина : 512 пикселей
Высота : 288 пикселей
Соотношение сторон : 16:9
Частота кадров : 29,970 кадров/сек
Цветовое пространство : YUV
Субдискретизация насыщенности : 4:2:0
Битовая глубина : 8 бит
Тип развёртки : Прогрессивная
Метод сжатия : С потерями
Бит/(Пиксели*Кадры) : 0.137
Размер потока : 425 Мбайт (85%)
Библиотека кодирования : XviD 1.2.1 (UTC 2008-12-04)
Аудио
Идентификатор : 1
Формат : MPEG Audio
Версия формата : Version 1
Профиль формата : Layer 3
Режим : Joint stereo
Расширение режима : MS Stereo
Идентификатор кодека : 55
Идентификатор кодека/Подсказка : MP3
Продолжительность : 1 ч. 38 м.
Вид битрейта : Постоянный
Битрейт : 96,0 Кбит/сек
Каналы : 2 канала
Частота : 32,0 КГц
Метод сжатия : С потерями
Размер потока : 67,4 Мбайт (13%)
Выравнивание : Соединение по промежуткам
Продолжительность промежутка : 36 мс. (1,08 видеокадр)
Время предзагрузки промежутка : 504 мс.
Библиотека кодирования : LAME3.97
Настройки программы : -m j -V 4 -q 2 -lowpass 15.1 -b 96
Раздача с 15.00 до 3.30 (время московское)
Download / Скачать

Хотите скачать бесплатно? Зарегистрируйтесь на сайте (ссылка на регистрацию). Pirat.ca - самый быстрый торрент трекер в рунете!

Как скачивать  ·   Что такое торрент  ·   Рейтинг и ограничения

Пост 20-Мар-2014 21:53 (спустя 6 минут)

Топик был перенесен из форума Наше кино (Трюм) в форум Золотая коллекция
kugesan
 
Показать сообщения:    
Ответить на тему

Текущее время: Сегодня 20:04

Часовой пояс: GMT + 4



Вы не можете начинать темы
Вы не можете отвечать на сообщения
Вы не можете редактировать свои сообщения
Вы не можете удалять свои сообщения
Вы не можете голосовать в опросах
Вы не можете прикреплять файлы к сообщениям
Вы не можете скачивать файлы

▼ Вниз