ML
     
  Уважаемый Гость!
Вы можете поддержать проект и зарегистрироваться у наших партнеров - онлайн-стратегия MyLands. При регистрации в игре Вы получите код, который сможете активировать после регистрации на pirat.ca и получить 1000 дублонов.

Ваш код:
0af2e2107bc9b5dd5ac2c09f9fc25e1a77c43887
 
     

Туманность Андромеды (Евгений Шерстобитов) [1967 г., фантастика, DVDRip]

Ответить на тему
 
Автор
Сообщение

Пост 22-Мар-2014 20:46

[Q] 

Мархуз

-Туманность Андромеды-- Производство: СССР, Киностудия им. Довженко
Режиссер: Евгений Шерстобитов
Жанр: фантастика
Год выпуска: 1967 г.
Продолжительность: 01:08:04
В ролях: Вия Артмане, Сергей Столяров, Николай Крюков, Татьяна Волошина, Роман Хомятов, Людмила Чурсина, Александр Голобородько, Геннадий Юхтин, Марина Юрасова, Александр Гай-Описание: Будущее. В космосе происходят странные вещи с кораблем землян. Их звездолет вошел в гравитационное поле одной неизведанной звездной системы. Никто здесь раньше не был, но все знают о "дурном" нраве Железной Звезды. Путешественники не в силах выбраться из ее поля и вынуждены оставаться на орбите еще двадцать лет...-Качество видео: DVDRip
Контейнер: AVI
Видео кодек: DivX
Аудио кодек: MP3
Видео: 624x272; 1300 kbps; 25 fps; 0.306 bit/pixel
Аудио: 128 kbps; 48 kHz; 2 ch
Cубтитры: отсутствуют
Общее
Полное имя : E:\Torrent\Tumannost_Andromedi_[Pirat.ca].torrent.avi
Формат : AVI
Формат/Информация : Audio Video Interleave
Размер файла : 700 Мбайт
Продолжительность : 1 ч. 8 м.
Общий поток : 1438 Кбит/сек
Библиотека кодирования : VirtualDub build 16250/release
Видео
Идентификатор : 0
Формат : MPEG-4 Visual
Параметр BVOP формата : 1
Параметр QPel формата : Нет
Параметр GMC формата : Без точки перехода
Параметр матрицы формата : Default (H.263)
Режим смешивания : Сжатый битовый поток
Идентификатор кодека : DX50
Идентификатор кодека/Подсказка : DivX 5
Продолжительность : 1 ч. 8 м.
Битрейт : 1300 Кбит/сек
Ширина : 624 пикселя
Высота : 272 пикселя
Соотношение сторон : 2,25:1
Частота кадров : 25,000 кадров/сек
Цветовое пространство : YUV
Субдискретизация насыщенности : 4:2:0
Битовая глубина : 8 бит
Тип развёртки : Прогрессивная
Метод сжатия : С потерями
Бит/(Пиксели*Кадры) : 0.306
Размер потока : 633 Мбайт (90%)
Библиотека кодирования : DivX 5.0.5 (UTC 2003-04-24)
Аудио
Идентификатор : 1
Формат : MPEG Audio
Версия формата : Version 1
Профиль формата : Layer 3
Режим : Joint stereo
Расширение режима : MS Stereo
Идентификатор кодека : 55
Идентификатор кодека/Подсказка : MP3
Продолжительность : 1 ч. 8 м.
Вид битрейта : Постоянный
Битрейт : 128 Кбит/сек
Каналы : 2 канала
Частота : 48,0 КГц
Метод сжатия : С потерями
Размер потока : 62,3 Мбайт (9%)
Выравнивание : Разделение по промежуткам
Продолжительность промежутка : 40 мс. (1,00 видеокадр)
Время предзагрузки промежутка : 500 мс.
Раздача с 15.00 до 3.30 (время московское)
Download / Скачать

Хотите скачать бесплатно? Зарегистрируйтесь на сайте (ссылка на регистрацию). Pirat.ca - самый быстрый торрент трекер в рунете!

Как скачивать  ·   Что такое торрент  ·   Рейтинг и ограничения

Пост 22-Мар-2014 21:09 (спустя 22 минуты)

Топик был перенесен из форума Наше кино (Трюм) в форум Золотая коллекция
kugesan
 

okorm

889

Пост 28-Мар-2014 16:21 (спустя 5 дней)

[Q] 

Раздающему респект! Одобрямс!
[Профиль]  [ЛС] 

Мархуз ®

4505

Пост 29-Мар-2014 19:00 (спустя 1 день 2 часа)

[Q] 

okorm, Спасибо на добром слове. aa

_________________

Счастье для всех, даром, и пусть никто не уйдёт обиженный
[Профиль]  [ЛС] 

eagle26

Шкипер

Пост 02-Апр-2014 20:50 (спустя 4 дня)

[Q] 

Спасибо! Автору респект!!!
[Профиль]  [ЛС] 

RnD

Морской Волк

Пост 16-Май-2014 21:34 (спустя 1 месяц 14 дней)

[Q] 

Фильмы детства, сейчас таких уже нет, увы. Спасибо !!!!
[Профиль]  [ЛС] 
Показать сообщения:    
Ответить на тему

Текущее время: Сегодня 00:06

Часовой пояс: GMT + 4



Вы не можете начинать темы
Вы не можете отвечать на сообщения
Вы не можете редактировать свои сообщения
Вы не можете удалять свои сообщения
Вы не можете голосовать в опросах
Вы не можете прикреплять файлы к сообщениям
Вы не можете скачивать файлы

▼ Вниз