ML
     
  Уважаемый Гость!
Вы можете поддержать проект и зарегистрироваться у наших партнеров - онлайн-стратегия MyLands. При регистрации в игре Вы получите код, который сможете активировать после регистрации на pirat.ca и получить 1000 дублонов.

Ваш код:
ba41f7961e0b4717aed6a401d955262223b8f6c4
 
     

Баллада о доблестном рыцаре Айвенго (Сергей Тарасов) [1982 г., приключения, DVDRip]

Ответить на тему
 
Автор
Сообщение

Пост 24-Мар-2014 00:22

[Q] 

Мархуз

-Баллада о доблестном рыцаре Айвенго-- Производство: СССР. Мосфильм
Режиссер: Сергей Тарасов
Жанр: приключения
Год выпуска: 1982 г.
Продолжительность: 01:27:18
В ролях: Тамара Акулова, Петерис Гаудиньш, Борис Химичев, Леонид Кулагин, Ромуальд Анцанс, Борис Хмельницкий,Юрий Смирнов, Александр Филиппенко, Витаутас Томкус, Альгимантас Масюлис, Майя Булгакова, Владимир Талашко, Марина Либакова-Ливанова, Сергей Тарасов-Описание: Рыцарь Айвенго возвращается с крестового похода и пытается восстановить свою честь, права на свое наследство и добиться руки своей возлюбленной.
Это историко-приключенческая сага о благородном рыцаре, который оказывается вовлеченным в яростную борьбу за английский трон между принцем Джоном и его братом королем Ричардом.-Качество видео: DVDRip
Контейнер: AVI
Видео кодек: XviD
Аудио кодек: AC3
Видео: 688x416; 1931 kbps; 25 fps; 0.27 bit/pixel
Аудио: 384 kbps; 48 kHz; 6 ch
Cубтитры: отсутствуют
В фильме звучат четыре песни-баллады Владимира Высоцкого: «О вольных стрелках», «О любви», «О борьбе» и «О времени».
Общее
Полное имя : E:\Torrent\Ajvengo_[Pirat.ca].torrent.avi
Формат : AVI
Формат/Информация : Audio Video Interleave
Размер файла : 1,42 Гбайт
Продолжительность : 1 ч. 27 м.
Общий поток : 2325 Кбит/сек
Программа кодирования : VirtualDubModRus 1.5.10.2 (build 2540/release)
Библиотека кодирования : VirtualDubMod build 2540/release
Видео
Идентификатор : 0
Формат : MPEG-4 Visual
Профиль формата : Advanced [email protected]
Параметр BVOP формата : 1
Параметр QPel формата : Нет
Параметр GMC формата : Без точки перехода
Параметр матрицы формата : Выборочная
Идентификатор кодека : XVID
Идентификатор кодека/Подсказка : XviD
Продолжительность : 1 ч. 27 м.
Битрейт : 1931 Кбит/сек
Ширина : 688 пикселей
Высота : 416 пикселей
Соотношение сторон : 1,654
Частота кадров : 25,000 кадров/сек
Цветовое пространство : YUV
Субдискретизация насыщенности : 4:2:0
Битовая глубина : 8 бит
Тип развёртки : Прогрессивная
Метод сжатия : С потерями
Бит/(Пиксели*Кадры) : 0.270
Размер потока : 1,18 Гбайт (83%)
Библиотека кодирования : XviD 64
Аудио
Идентификатор : 1
Формат : AC-3
Формат/Информация : Audio Coding 3
Расширение режима : CM (complete main)
Параметр Endianness формата : Big
Идентификатор кодека : 2000
Продолжительность : 1 ч. 27 м.
Вид битрейта : Постоянный
Битрейт : 384 Кбит/сек
Каналы : 6 каналов
Расположение каналов : Front: L C R, Side: L R, LFE
Частота : 48,0 КГц
Битовая глубина : 16 бит
Метод сжатия : С потерями
Размер потока : 240 Мбайт (17%)
Выравнивание : Разделение по промежуткам
Продолжительность промежутка : 40 мс. (1,00 видеокадр)
Время предзагрузки промежутка : 500 мс.
Раздача с 15.00 до 3.30 (время московское)
Download / Скачать

Хотите скачать бесплатно? Зарегистрируйтесь на сайте (ссылка на регистрацию). Pirat.ca - самый быстрый торрент трекер в рунете!

Как скачивать  ·   Что такое торрент  ·   Рейтинг и ограничения

Пост 24-Мар-2014 17:04 (спустя 16 часов)

Топик был перенесен из форума Наше кино (Трюм) в форум Золотая коллекция
ara1205
 

okorm

889

Пост 30-Мар-2014 19:52 (спустя 6 дней)

[Q] 

Автору респект!!! Лови бочку
[Профиль]  [ЛС] 
Показать сообщения:    
Ответить на тему

Текущее время: Сегодня 14:45

Часовой пояс: GMT + 4



Вы не можете начинать темы
Вы не можете отвечать на сообщения
Вы не можете редактировать свои сообщения
Вы не можете удалять свои сообщения
Вы не можете голосовать в опросах
Вы не можете прикреплять файлы к сообщениям
Вы не можете скачивать файлы

▼ Вниз