ML
     
  Уважаемый Гость!
Вы можете поддержать проект и зарегистрироваться у наших партнеров - онлайн-стратегия MyLands. При регистрации в игре Вы получите код, который сможете активировать после регистрации на pirat.ca и получить 1000 дублонов.

Ваш код:
b70663c760e7cd2521b8e123786cdd788200e3bd
 
     

Тегеран-43 (2 серии) (Александр Алов, Владимир Наумов) [1980 г., военный, детектив, DVDRip]

Ответить на тему
 
Автор
Сообщение

Пост 27-Мар-2014 19:42

[Q] 

Мархуз

-Тегеран-43 (2 серии)-- Производство: СССР - Швейцария – Франция
Режиссер: Александр Алов, Владимир Наумов
Жанр: военный, детектив
Год выпуска: 1980 г.
Продолжительность: 02:24:39
В ролях: Игорь Костолевский, Наталья Белохвостикова, Ален Делон, Курд Юргенс, Армен Джигарханян, Альберт Филозов, Николай Гринько, Глеб Стриженов, Жорж Жере, Клод Жад, Всеволод Санаев, Нартай Бегалин, Георгий Саакян, Баадур Цуладзе, Владимир Басов, Наталья Наумова, Елена Добронравова-Описание: Фильм о раскрытии и провале попытки гитлеровских агентов сорвать Тегеранскую конференцию и организовать покушение на ее участников - глав правительств СССР, США и Англии. Действие картины происходит в 1943 году и в 80-е годы. Через 35 лет вновь всплывает тегеранское дело, участники которого - руководители и организаторы тайных убийств - в то время ушли от возмездия. Советский разведчик, Андрей Бородин (Андрэ), сорвавший планы фашистов, и парижанка Мари Луни встретятся в Тегеране и будут вовлечены в опасную игру. Их счастье невозможно: герои расстаются, чтобы через много лет встретиться в Париже - единственный и последний раз.-Качество видео: DVDRip
Контейнер: AVI
Видео кодек: DivX
Аудио кодек: MP3
Видео: 640x480; 1310 kbps; 25 fps; 0.171 bit/pixel
Аудио: 128 kbps; 48 kHz; 2 ch
Cубтитры: отсутствуют
1981 год - Главный приз Всесоюзного кинофестиваля
1981 год - Золотой приз МКФ в Москве
1981 год - Приз Общества «Родина» МКФ в Москве
1серия
Общее
Полное имя : E:\Torrent\Tegeran-43_[Pirat.ca].torrent\01 серия.avi
Формат : AVI
Формат/Информация : Audio Video Interleave
Размер файла : 766 Мбайт
Продолжительность : 1 ч. 13 м.
Общий поток : 1448 Кбит/сек
Программа кодирования : VirtualDubModRus 1.5.10.2 (build 2542/release)
Библиотека кодирования : VirtualDubMod build 2542/release
Видео
Идентификатор : 0
Формат : MPEG-4 Visual
Параметр BVOP формата : 1
Параметр QPel формата : Нет
Параметр GMC формата : Без точки перехода
Параметр матрицы формата : Default (H.263)
Режим смешивания : Сжатый битовый поток
Идентификатор кодека : DX50
Идентификатор кодека/Подсказка : DivX 5
Продолжительность : 1 ч. 13 м.
Битрейт : 1310 Кбит/сек
Ширина : 640 пикселей
Высота : 480 пикселей
Соотношение сторон : 4:3
Частота кадров : 25,000 кадров/сек
Цветовое пространство : YUV
Субдискретизация насыщенности : 4:2:0
Битовая глубина : 8 бит
Тип развёртки : Прогрессивная
Метод сжатия : С потерями
Бит/(Пиксели*Кадры) : 0.171
Размер потока : 693 Мбайт (90%)
Библиотека кодирования : DivX 6.8.3-6.8.4 (UTC 2008-06-07)
Аудио
Идентификатор : 1
Формат : MPEG Audio
Версия формата : Version 1
Профиль формата : Layer 3
Идентификатор кодека : 55
Идентификатор кодека/Подсказка : MP3
Продолжительность : 1 ч. 13 м.
Вид битрейта : Постоянный
Битрейт : 128 Кбит/сек
Каналы : 2 канала
Частота : 48,0 КГц
Метод сжатия : С потерями
Размер потока : 67,7 Мбайт (9%)
Выравнивание : Соединение по промежуткам
Продолжительность промежутка : 40 мс. (1,00 видеокадр)
Время предзагрузки промежутка : 504 мс.
Библиотека кодирования : LAME3.97
Настройки программы : -m s -V 4 -q 2 -b 128
2серия
Общее
Полное имя : E:\Torrent\Tegeran-43_[Pirat.ca].torrent\02 серия.avi
Формат : AVI
Формат/Информация : Audio Video Interleave
Размер файла : 733 Мбайт
Продолжительность : 1 ч. 10 м.
Общий поток : 1448 Кбит/сек
Программа кодирования : VirtualDubModRus 1.5.10.2 (build 2542/release)
Библиотека кодирования : VirtualDubMod build 2542/release
Видео
Идентификатор : 0
Формат : MPEG-4 Visual
Параметр BVOP формата : 1
Параметр QPel формата : Нет
Параметр GMC формата : Без точки перехода
Параметр матрицы формата : Default (H.263)
Режим смешивания : Сжатый битовый поток
Идентификатор кодека : DX50
Идентификатор кодека/Подсказка : DivX 5
Продолжительность : 1 ч. 10 м.
Битрейт : 1310 Кбит/сек
Ширина : 640 пикселей
Высота : 480 пикселей
Соотношение сторон : 4:3
Частота кадров : 25,000 кадров/сек
Цветовое пространство : YUV
Субдискретизация насыщенности : 4:2:0
Битовая глубина : 8 бит
Тип развёртки : Прогрессивная
Метод сжатия : С потерями
Бит/(Пиксели*Кадры) : 0.171
Размер потока : 663 Мбайт (90%)
Библиотека кодирования : DivX 6.8.3-6.8.4 (UTC 2008-06-07)
Аудио
Идентификатор : 1
Формат : MPEG Audio
Версия формата : Version 1
Профиль формата : Layer 3
Идентификатор кодека : 55
Идентификатор кодека/Подсказка : MP3
Продолжительность : 1 ч. 10 м.
Вид битрейта : Постоянный
Битрейт : 128 Кбит/сек
Каналы : 2 канала
Частота : 48,0 КГц
Метод сжатия : С потерями
Размер потока : 64,8 Мбайт (9%)
Выравнивание : Соединение по промежуткам
Продолжительность промежутка : 40 мс. (1,00 видеокадр)
Время предзагрузки промежутка : 504 мс.
Библиотека кодирования : LAME3.97
Настройки программы : -m s -V 4 -q 2 -b 128
Раздача с 15.00 до 3.30 (время московское)
Download / Скачать

Хотите скачать бесплатно? Зарегистрируйтесь на сайте (ссылка на регистрацию). Pirat.ca - самый быстрый торрент трекер в рунете!

Как скачивать  ·   Что такое торрент  ·   Рейтинг и ограничения

Пост 27-Мар-2014 21:05 (спустя 1 час 23 минуты)

Топик был перенесен из форума Наше кино (Трюм) в форум Золотая коллекция
kugesan
 
Показать сообщения:    
Ответить на тему

Текущее время: Сегодня 00:20

Часовой пояс: GMT + 4



Вы не можете начинать темы
Вы не можете отвечать на сообщения
Вы не можете редактировать свои сообщения
Вы не можете удалять свои сообщения
Вы не можете голосовать в опросах
Вы не можете прикреплять файлы к сообщениям
Вы не можете скачивать файлы

▼ Вниз