ML
     
  Уважаемый Гость!
Вы можете поддержать проект и зарегистрироваться у наших партнеров - онлайн-стратегия MyLands. При регистрации в игре Вы получите код, который сможете активировать после регистрации на pirat.ca и получить 1000 дублонов.

Ваш код:
5af7de75d3db09b6a37bc8bab71b0e87ccde73d6
 
     

Рысь возвращается (Агасий Бабаян) [1986 г., приключения, семейный, TVRip]

Ответить на тему
 
Автор
Сообщение

Пост 16-Апр-2014 14:30

[Q] 

Anonim.ca

-Рысь возвращается-- Производство: СССР. Мосфильм
Режиссер: Агасий Бабаян
Жанр: приключения, семейный
Год выпуска: 1986 г.
Продолжительность: 01:07:01
В ролях: Александр Михайлов, Елена Мельникова (Кузнецова), Филимон Сергеев, Сергей Юртайкин, Алексей Панькин, Вадим Захарченко, Олег Мокшанцев-Описание: Фильм продолжает рассказ о рыси Кунак, начатый в лентах "Тропой бескорыстной любви" и "Рысь выходит на тропу". Старый лесник Михалыч погибает в схватке с браконьерами и его верный друг - рысь Кунак - уходит в лес. Новый лесник Дроздов терпеливо приучает рысь к себе...-Качество видео: TVRip
Контейнер: AVI
Видео кодек: DivX
Аудио кодек: MP3
Видео: 656x320; 1323 kbps; 25 fps; 0.252 bit/pixel
Аудио: 128 kbps; 2ch; 48 kHz
Cубтитры: отсутствуют
Общее
Полное имя : E:\Torrent\Rys.vozvrashaetsya_[Pirat.ca].torrent.avi
Формат : AVI
Формат/Информация : Audio Video Interleave
Размер файла : 700 Мбайт
Продолжительность : 1 ч. 7 м.
Общий поток : 1461 Кбит/сек
Режиссёр : Rip by Xamasas
Программа кодирования : VirtualDubMod 1.5.10.2 (build 2540/release)
Видео
Идентификатор : 0
Формат : MPEG-4 Visual
Параметр BVOP формата : Нет
Параметр QPel формата : Нет
Параметр GMC формата : Без точки перехода
Параметр матрицы формата : Default (H.263)
Идентификатор кодека : DX50
Идентификатор кодека/Подсказка : DivX 5
Продолжительность : 1 ч. 7 м.
Битрейт : 1323 Кбит/сек
Ширина : 656 пикселей
Высота : 320 пикселей
Соотношение сторон : 2,050
Частота кадров : 25,000 кадров/сек
Цветовое пространство : YUV
Субдискретизация насыщенности : 4:2:0
Битовая глубина : 8 бит
Тип развёртки : Прогрессивная
Метод сжатия : С потерями
Бит/(Пиксели*Кадры) : 0.252
Размер потока : 634 Мбайт (91%)
Библиотека кодирования : DivX 5.2.1 (WaffleDay) (UTC 2004-09-08)
Аудио
Идентификатор : 1
Формат : MPEG Audio
Версия формата : Version 1
Профиль формата : Layer 3
Режим : Joint stereo
Расширение режима : MS Stereo
Идентификатор кодека : 55
Идентификатор кодека/Подсказка : MP3
Продолжительность : 1 ч. 7 м.
Вид битрейта : Постоянный
Битрейт : 128 Кбит/сек
Каналы : 2 канала
Частота : 48,0 КГц
Метод сжатия : С потерями
Размер потока : 61,4 Мбайт (9%)
Выравнивание : Соединение по промежуткам
Продолжительность промежутка : 40 мс. (1,00 видеокадр)
Время предзагрузки промежутка : 504 мс.
Раздача с 14.00 до 2.30 (время московское)
Download / Скачать

Хотите скачать бесплатно? Зарегистрируйтесь на сайте (ссылка на регистрацию). Pirat.ca - самый быстрый торрент трекер в рунете!

Как скачивать  ·   Что такое торрент  ·   Рейтинг и ограничения



Последний раз редактировалось: Anonim.ca (2016-03-30 19:28), всего редактировалось 2 раз(а)

balamutych 8

Шкипер

Пост 07-Июл-2014 13:04 (спустя 2 месяца 20 дней)

[Q] 

Спасибо отличное кино.
[Профиль]  [ЛС] 
Показать сообщения:    
Ответить на тему

Текущее время: Сегодня 14:08

Часовой пояс: GMT + 4



Вы не можете начинать темы
Вы не можете отвечать на сообщения
Вы не можете редактировать свои сообщения
Вы не можете удалять свои сообщения
Вы не можете голосовать в опросах
Вы не можете прикреплять файлы к сообщениям
Вы не можете скачивать файлы

▼ Вниз