ML
     
  Уважаемый Гость!
Вы можете поддержать проект и зарегистрироваться у наших партнеров - онлайн-стратегия MyLands. При регистрации в игре Вы получите код, который сможете активировать после регистрации на pirat.ca и получить 1000 дублонов.

Ваш код:
ee1288b6f7c09d9d2cb2a0f972aba30460ce9333
 
     

Следую своим курсом (Вадим Лысенко) [1974 г., военный, DVDRip]

Ответить на тему
 
Автор
Сообщение

Пост 27-Апр-2014 21:17

[Q] 

Мархуз

-Следую своим курсом-- Производство: СССР. Одесская киностудия
Режиссер: Вадим Лысенко
Жанр: военный
Год выпуска: 1974 г.
Продолжительность: 01:22:18
В ролях: У.Лиелдидж, С.Мартынов, И.Комаров, Ю.Орлов, В.Егоренкова, Е.Крупенникова, О.Корчиков, Г.Бурдули, В.Марченко, В.Костюченков, Н.Алексеев, Ю.Ротштейн, В.Маляревич, А.Кайдановский, Г.Юшко-Описание: Последние дни июля 1942 года. Два эсминца "Дерзкий" и "Стремительный" прорываются в Севастополь с солдатами и снарядами. "Дерзкий" гибнет от авиабомбы. Со "Стреми-тельного" бросают тонущим морякам всё, что могут: спасательные круги, пояса, плотики.
Но остановиться не могут, потому что станут мишенью, а на корабле более тысячи бойцов.-Качество видео: DVDRip
Контейнер: AVI
Видео кодек: DivX
Аудио кодек: AC3
Видео: 640x272; 987 kbps; 25 fps; 0.227 bit/pixel
Аудио: 192 kbps; 2 ch; 48 kHz
Cубтитры: отсутствуют
General
Complete name : E:\Torrent\Sleduju_svoim_kursom_[Pirat.ca].torrent.avi
Format : AVI
Format/Info : Audio Video Interleave
File size : 700 MiB
Duration : 1h 22mn
Overall bit rate : 1 189 Kbps
Writing application : VirtualDubMod 1.5.10.2 (build 2540/release)
Writing library : VirtualDub build 30009/release
Video
ID : 0
Format : MPEG-4 Visual
Format settings, BVOP : 1
Format settings, QPel : No
Format settings, GMC : No warppoints
Format settings, Matrix : Default (H.263)
Muxing mode : Packed bitstream
Codec ID : DX50
Codec ID/Hint : DivX 5
Duration : 1h 22mn
Bit rate : 987 Kbps
Width : 640 pixels
Height : 272 pixels
Display aspect ratio : 2.35:1
Frame rate : 25.000 fps
Color space : YUV
Chroma subsampling : 4:2:0
Bit depth : 8 bits
Scan type : Progressive
Compression mode : Lossy
Bits/(Pixel*Frame) : 0.227
Stream size : 581 MiB (83%)
Writing library : DivX 6.8.5 (UTC 2009-08-20)
Audio
ID : 1
Format : AC-3
Format/Info : Audio Coding 3
Mode extension : CM (complete main)
Format settings, Endianness : Big
Codec ID : 2000
Duration : 1h 22mn
Bit rate mode : Constant
Bit rate : 192 Kbps
Channel(s) : 2 channels
Channel positions : Front: L R
Sampling rate : 48.0 KHz
Bit depth : 16 bits
Compression mode : Lossy
Stream size : 113 MiB (16%)
Alignment : Aligned on interleaves
Interleave, duration : 40 ms (1.00 video frame)
Interleave, preload duration : 512 ms
Раздача с 14.00 до 2.30 (время московское)
Download / Скачать

Хотите скачать бесплатно? Зарегистрируйтесь на сайте (ссылка на регистрацию). Pirat.ca - самый быстрый торрент трекер в рунете!

Как скачивать  ·   Что такое торрент  ·   Рейтинг и ограничения

Пост 27-Апр-2014 21:32 (спустя 14 минут)

Топик был перенесен из форума Наше кино (Трюм) в форум Золотая коллекция
kugesan
 

canfly

507

Пост 27-Апр-2014 21:49 (спустя 31 минута)

[Q] 

"Но остановиться не могут, потому что станут мишенью, а на корабле более тысячи бой"
Может "бойцов" ?
За фильм - спасибо!
Kerchine писал(а):

Исправлено

_________________
[Профиль]  [ЛС] 

Мархуз ®

4505

Пост 27-Апр-2014 21:56 (спустя 6 минут)

[Q] 

спасибо aa

_________________

Счастье для всех, даром, и пусть никто не уйдёт обиженный
[Профиль]  [ЛС] 

Voldemartop

Легенда

1547

Пост 27-Апр-2014 22:26 (спустя 30 минут)

[Q] 

Благо Дарю!!!
Автору респект!!! Лови бочку

_________________


МОИ РАЗДАЧИ
[Профиль]  [ЛС] 

Мархуз ®

4505

Пост 28-Апр-2014 02:51 (спустя 4 часа)

[Q] 

Voldemartop, и тебе счастья до конца дней, цалую тябя в темечко. aa

_________________

Счастье для всех, даром, и пусть никто не уйдёт обиженный
[Профиль]  [ЛС] 
Показать сообщения:    
Ответить на тему

Текущее время: Сегодня 18:20

Часовой пояс: GMT + 4



Вы не можете начинать темы
Вы не можете отвечать на сообщения
Вы не можете редактировать свои сообщения
Вы не можете удалять свои сообщения
Вы не можете голосовать в опросах
Вы не можете прикреплять файлы к сообщениям
Вы не можете скачивать файлы

▼ Вниз