ML
     
  Уважаемый Гость!
Вы можете поддержать проект и зарегистрироваться у наших партнеров - онлайн-стратегия MyLands. При регистрации в игре Вы получите код, который сможете активировать после регистрации на pirat.ca и получить 1000 дублонов.

Ваш код:
193c38d0130f05c24de871678ea3ac181461757d
 
     

Сын полка / Серии: 1-2 из 2 (Георгий Кузнецов) [1981 г., ВОВ, драма, военный, DVDRip]

Ответить на тему
 
Автор
Сообщение

Пост 04-Май-2014 14:10

[Q] 

cergo

Гроза морей

-Сын полкаСерии: 1-2 из 2--
Производство: СССР, Свердловская киностудия
Режиссер: Георгий Кузнецов
Жанр: ВОВ, драма, военный
Год выпуска: 1981 г.
Продолжительность: 2 х ~ 01:04:00
В ролях: Игорь Носов, Вадим Яковлев, Виктор Мирошниченко, Виктор Павлов, Иван Краско, Николай Гусаров, Виктор Шубин, Иван Криворучко, Андрей Комаров, Людмила Крячун, Семён Фарада, Игорь Варпа, Валерий Величко, Юрий Ершов, Михаил Пазников-Описание: По одноименной повести В. Катаева. Лето 1943 года. Группа разведчиков артиллерийского дивизиона во время рейда по вражескому тылу натыкается на 12-тилетнего мальчишку. Разведчиков потрясает его вид - совершенно дикий, грязный, оборванный, злой и голодный - настоящий волчонок. Разведчики забирают его с собой и выясняют, что скитается он по лесам вот уже около двух лет, питается, чем придется и все время прячется. Командование принимает решение отправить мальчика в тыл, но по пути в город он все равно сбегает и снова возвращается к разведчикам...-
Качество видео: DVDRip
Контейнер: AVI
Видео кодек: DivX
Аудио кодек: AC3
Видео: 720x544 (1.32:1), 25 fps, DivX Codec 6.8.3 ~2090 kbps avg, 0.21 bit/pixel
Аудио: 48 kHz, AC3 Dolby Digital, 2/0 (L,R) ch, ~192 kbps
Cубтитры: отсутствуют
Общее
Полное имя : D:\Архив\Фильмы\Sin_polka_DVDRip\01_Sin_polka_DVDRip.avi
Формат : AVI
Формат/Информация : Audio Video Interleave
Размер файла : 1,06 Гбайт
Продолжительность : 1 ч. 6 м.
Общий поток : 2292 Кбит/сек
Программа кодирования : VirtualDubModRus 1.5.10.2 (build 2542/release)
Библиотека кодирования : VirtualDubMod build 2542/release
Видео
Идентификатор : 0
Формат : MPEG-4 Visual
Параметр BVOP формата : 1
Параметр QPel формата : Нет
Параметр GMC формата : Без точки перехода
Параметр матрицы формата : Default (H.263)
Режим смешивания : Сжатый битовый поток
Идентификатор кодека : DX50
Идентификатор кодека/Подсказка : DivX 5
Продолжительность : 1 ч. 6 м.
Битрейт : 2091 Кбит/сек
Ширина : 720 пикселей
Высота : 544 пикселя
Соотношение сторон : 4:3
Частота кадров : 25,000 кадров/сек
Цветовое пространство : YUV
Субдискретизация насыщенности : 4:2:0
Битовая глубина : 8 бит
Тип развёртки : Прогрессивная
Метод сжатия : С потерями
Бит/(Пиксели*Кадры) : 0.214
Размер потока : 989 Мбайт (91%)
Библиотека кодирования : DivX 6.8.3-6.8.4 (UTC 2008-06-07)
Аудио
Идентификатор : 1
Формат : AC-3
Формат/Информация : Audio Coding 3
Расширение режима : CM (complete main)
Параметр Endianness формата : Big
Идентификатор кодека : 2000
Продолжительность : 1 ч. 6 м.
Вид битрейта : Постоянный
Битрейт : 192 Кбит/сек
Каналы : 2 канала
Расположение каналов : Front: L R
Частота : 48,0 КГц
Битовая глубина : 16 бит
Метод сжатия : С потерями
Размер потока : 90,8 Мбайт (8%)
Выравнивание : Соединение по промежуткам
Продолжительность промежутка : 40 мс. (1,00 видеокадр)
Время предзагрузки промежутка : 512 мс.
Download / Скачать

Хотите скачать бесплатно? Зарегистрируйтесь на сайте (ссылка на регистрацию). Pirat.ca - самый быстрый торрент трекер в рунете!

Как скачивать  ·   Что такое торрент  ·   Рейтинг и ограничения

viktor41

Шкипер

Пост 04-Май-2014 15:42 (спустя 1 час 31 минута)

[Q] 

cergo, Спасибо !
[Профиль]  [ЛС] 

cergo ®

Гроза морей

20035

Пост 04-Май-2014 16:10 (спустя 27 минут)

[Q] 

530680cergo, Спасибо !
aa az
[Профиль]  [ЛС] 

DENON2507

Гроза морей

2434

Пост 04-Май-2014 16:41 (спустя 31 минута)

[Q] 

cergo, Лови боку! Спасибо за мной Раздающему респект!
[Профиль]  [ЛС] 

cergo ®

Гроза морей

20035

Пост 04-Май-2014 17:30 (спустя 48 минут)

[Q] 

DENON2507, az
[Профиль]  [ЛС] 

Пост 04-Май-2014 20:19 (спустя 2 часа 49 минут)

Топик был перенесен из форума Наше кино (Трюм) в форум Золотая коллекция
erchine
 

UncleFather

Легенда

Пост 10-Май-2014 06:47 (спустя 5 дней)

[Q] 

Хороший старый фильм. Спасибо. Спасибо!!!

_________________
Одни боялись Пью, другие - Билли Бонса, а меня... меня боялся сам Флинт
[Профиль]  [ЛС] 
Показать сообщения:    
Ответить на тему

Текущее время: Сегодня 18:08

Часовой пояс: GMT + 4



Вы не можете начинать темы
Вы не можете отвечать на сообщения
Вы не можете редактировать свои сообщения
Вы не можете удалять свои сообщения
Вы не можете голосовать в опросах
Вы не можете прикреплять файлы к сообщениям
Вы не можете скачивать файлы

▼ Вниз