ML
     
  Уважаемый Гость!
Вы можете поддержать проект и зарегистрироваться у наших партнеров - онлайн-стратегия MyLands. При регистрации в игре Вы получите код, который сможете активировать после регистрации на pirat.ca и получить 1000 дублонов.

Ваш код:
6f9ab67d502902cc72a06c406977ddb589b7f39d
 
     

Битва за Москву (2 фильма из 2) (Юрий Озеров) [1985 г., Драма, военный, ВОВ, DVDRip]

Ответить на тему
 
Автор
Сообщение

Пост 04-Май-2014 18:37

[Q] 

cergo

Гроза морей

-Битва за Москву2 фильма из 2--

Производство: СССР, Чехословакия, Германия (ГДР), Вьетнам, Киностудия Дефа, Filmove Studio Barrandov, Мосфильм
Режиссер: Юрий Озеров
Жанр: Драма, военный, ВОВ
Год выпуска: 1985 г.
Продолжительность: 05:36:38
Российская премьера: январь 1986
В ролях: Яков Трипольский, Михаил Ульянов, Александр Голобородько, Бруно Фрейндлих, Николай Засухин, Анатолий Никитин, Владимир Трошин, Степан Микоян, Вячеслав Езепов, Юозас Будрайтис, Микк Микивер, Геннадий Сайфулин, Олегар Федоро, Лев Прыгунов, Константин Степанков, Владимир Широков, Олег Штефанко, Владимир Ткаченко, Вячеслав Гуренков, Дмитрий Герасимов, Виталий Розстальный, Константин Захаров, Валерий Косенков, Алексей Илюхин, Анатолий Кузнецов, Леонид Евтифьев, Геннадий Фролов, Владимир Кузнецов, Александр Панкратов-Чёрный, Николай Иванов, Ахим Петри, Юрий Яковлев, Эммануил Виторган-Описание: Картина состоит из двух частей: "Агрессия" и "Тайфун". Премьера в Москве - январь 1986 г. Широкоформатный фильм, созданный на основе документальных материалов, с хроникальной точностью воспроизводит некоторые крупные сражения Великой Отечественной Войны - первое героическое сопротивление Красной армии в Брестской крепости и первое крупное поражение Гитлера - разгром фашистских войск под Москвой...-
Качество видео: DVDRip
Контейнер: AVI
Видео кодек: XviD
Аудио кодек: AC3
Cубтитры: отсутствуют
Общее
Полное имя : D:\Архив\Фильмы\Bitva.Za.Moskvu.Film.1-2.1985.XviD.DVDRip.avi\Bitva.Za.Moskvu.Film.1.Agressiya.1985.XviD.DVDRip.avi
Формат : AVI
Формат/Информация : Audio Video Interleave
Профиль формата : OpenDML
Размер файла : 2,05 Гбайт
Продолжительность : 2 ч. 46 м.
Общий поток : 1766 Кбит/сек
Программа кодирования : VirtualDubMod 1.5.10.2 (build 2540/release)
Библиотека кодирования : VirtualDubMod build 2540/release
Видео
Идентификатор : 0
Формат : MPEG-4 Visual
Профиль формата : Advanced [email protected]
Параметр BVOP формата : 2
Параметр QPel формата : Нет
Параметр GMC формата : Без точки перехода
Параметр матрицы формата : Default (MPEG)
Режим смешивания : Сжатый битовый поток
Идентификатор кодека : XVID
Идентификатор кодека/Подсказка : XviD
Продолжительность : 2 ч. 46 м.
Битрейт : 1562 Кбит/сек
Ширина : 704 пикселя
Высота : 304 пикселя
Соотношение сторон : 2,35:1
Частота кадров : 25,000 кадров/сек
Цветовое пространство : YUV
Субдискретизация насыщенности : 4:2:0
Битовая глубина : 8 бит
Тип развёртки : Прогрессивная
Метод сжатия : С потерями
Бит/(Пиксели*Кадры) : 0.292
Размер потока : 1,81 Гбайт (88%)
Библиотека кодирования : XviD 58
Аудио
Идентификатор : 1
Формат : AC-3
Формат/Информация : Audio Coding 3
Расширение режима : CM (complete main)
Параметр Endianness формата : Big
Идентификатор кодека : 2000
Продолжительность : 2 ч. 45 м.
Вид битрейта : Постоянный
Битрейт : 192 Кбит/сек
Каналы : 2 канала
Расположение каналов : Front: L R
Частота : 48,0 КГц
Битовая глубина : 16 бит
Метод сжатия : С потерями
Размер потока : 228 Мбайт (11%)
Выравнивание : Разделение по промежуткам
Продолжительность промежутка : 40 мс. (1,00 видеокадр)
Время предзагрузки промежутка : 500 мс.
Видео: 704x304 (2.32:1), 25 fps, XviD MPEG-4 ~1562 kbps avg, 0.29 bit/pixel
Аудио: 48 kHz, AC3 Dolby Digital, 2/0 (L,R) ch, ~192 kbps
Продолжительность: 02.46.02
Скриншоты:
Общее
Полное имя : D:\Архив\Фильмы\Bitva.Za.Moskvu.Film.1-2.1985.XviD.DVDRip.avi\Bitva.Za.Moskvu.Film.2.Tajfun.1985.XviD.DVDRip.avi
Формат : AVI
Формат/Информация : Audio Video Interleave
Профиль формата : OpenDML
Размер файла : 2,05 Гбайт
Продолжительность : 2 ч. 50 м.
Общий поток : 1719 Кбит/сек
Программа кодирования : VirtualDubMod 1.5.10.2 (build 2540/release)
Библиотека кодирования : VirtualDubMod build 2540/release
Видео
Идентификатор : 0
Формат : MPEG-4 Visual
Профиль формата : Advanced [email protected]
Параметр BVOP формата : 2
Параметр QPel формата : Нет
Параметр GMC формата : Без точки перехода
Параметр матрицы формата : Default (MPEG)
Режим смешивания : Сжатый битовый поток
Идентификатор кодека : XVID
Идентификатор кодека/Подсказка : XviD
Продолжительность : 2 ч. 50 м.
Битрейт : 1515 Кбит/сек
Ширина : 704 пикселя
Высота : 304 пикселя
Соотношение сторон : 2,35:1
Частота кадров : 25,000 кадров/сек
Цветовое пространство : YUV
Субдискретизация насыщенности : 4:2:0
Битовая глубина : 8 бит
Тип развёртки : Прогрессивная
Метод сжатия : С потерями
Бит/(Пиксели*Кадры) : 0.283
Размер потока : 1,80 Гбайт (88%)
Библиотека кодирования : XviD 58
Аудио
Идентификатор : 1
Формат : AC-3
Формат/Информация : Audio Coding 3
Расширение режима : CM (complete main)
Параметр Endianness формата : Big
Идентификатор кодека : 2000
Продолжительность : 2 ч. 50 м.
Вид битрейта : Постоянный
Битрейт : 192 Кбит/сек
Каналы : 2 канала
Расположение каналов : Front: L R
Частота : 48,0 КГц
Битовая глубина : 16 бит
Метод сжатия : С потерями
Размер потока : 234 Мбайт (11%)
Выравнивание : Разделение по промежуткам
Продолжительность промежутка : 40 мс. (1,00 видеокадр)
Время предзагрузки промежутка : 500 мс.
Видео: 704x304 (2.32:1), 25 fps, XviD MPEG-4 ~1515 kbps avg, 0.28 bit/pixel
Аудио: 48 kHz, AC3 Dolby Digital, 2/0 (L,R) ch, ~192 kbps
Продолжительность: 02.50.36.
Скриншоты:
Download / Скачать

Хотите скачать бесплатно? Зарегистрируйтесь на сайте (ссылка на регистрацию). Pirat.ca - самый быстрый торрент трекер в рунете!

Как скачивать  ·   Что такое торрент  ·   Рейтинг и ограничения



Последний раз редактировалось: cergo (2014-05-04 20:58), всего редактировалось 3 раз(а)

Пост 04-Май-2014 21:12 (спустя 2 часа 34 минуты)

Топик был перенесен из форума Наше кино (Трюм) в форум Золотая коллекция
erchine
 

vtripe

Корсар

35

Пост 09-Окт-2014 21:38 (спустя 5 месяцев 5 дней)

[Q] 

Большое спасибо за раздачу)
[Профиль]  [ЛС] 
Показать сообщения:    
Ответить на тему

Текущее время: Сегодня 16:33

Часовой пояс: GMT + 4



Вы не можете начинать темы
Вы не можете отвечать на сообщения
Вы не можете редактировать свои сообщения
Вы не можете удалять свои сообщения
Вы не можете голосовать в опросах
Вы не можете прикреплять файлы к сообщениям
Вы не можете скачивать файлы

▼ Вниз