ML
     
  Уважаемый Гость!
Вы можете поддержать проект и зарегистрироваться у наших партнеров - онлайн-стратегия MyLands. При регистрации в игре Вы получите код, который сможете активировать после регистрации на pirat.ca и получить 1000 дублонов.

Ваш код:
5f4e94775bc0501caff7b254e79328d304c817d9
 
     

Разведчики (Игорь Самборский, Алексей Швачко) [1968 г., Приключения, ВОВ, DVDRip]

Ответить на тему
 
Автор
Сообщение

Пост 08-Май-2014 17:56

[Q] 

Resident

-Разведчики-- Производство: СССР, Киностудия им. А. Довженко
Режиссер: Игорь Самборский, Алексей Швачко
Жанр: Приключения, ВОВ
Год выпуска: 1968 г.
Продолжительность: 01:14:54
Дата выхода DVD: 12 февраля 2009, «Мьюзик-Трейд», ...
В ролях: Иван Миколайчук, Леонид Быков, Константин Степанков, Андрей Сова, Алексей Смирнов (I), Гия Кобахидзе, Людмила Марченко, Виталий Дорошенко, Владимир Емельянов, Лаврентий Масоха, Лев Перфилов, Борислав Брондуков, Валерий Панарин, Юрий Цупко, Анатолий Юрченко, Александр Ануров, Владимир Волков, Валентин Дуклер, Рудольф Дамбран, Анатолий Кучеренко, Дмитрий Франько, Валентин Черняк, Виктор Шахов, Витольд Янпавлис, Александр Афанасьев, Светлана Кондратова-Описание: Идут бои на окраинах города у реки Дунай. Река — единственная водная артерия города — заминирована противником, что сковывает действия наших войск, кроме того, город с миллионным населением остался без продовольствия, люди умирают от голода, вспыхиваютэпидемии, а ниже, по Дунаю стоят советские караваны судов с продовольствием, командование поручает группе разведчиков трудную и очень опасную операцию — раздобыть у противника карту заминированных участков Дуная.-
Качество видео: DVDRip
Контейнер: AVI
Видео кодек: XviD
Аудио кодек: MP3
Видео: XviD, 1507 Кбит/с, 704x368, 25.000 fps, 0.233 bpp
Аудио: 48 kHz, MP3, 2 ch, 128 Кбит/с
Cубтитры: отсутствуют
General
Complete name : W:\Razvedchiki.1968.DVDRip.avi
Format : AVI
Format/Info : Audio Video Interleave
File size : 881 MiB
Duration : 1h 14mn
Overall bit rate : 1 645 Kbps
Writing application : VirtualDubMod 1.5.10.2 (build 2540/release)
Writing library : VirtualDubMod build 2540/release
Video
ID : 0
Format : MPEG-4 Visual
Format profile : Advanced [email protected]
Format settings, BVOP : Yes
Format settings, QPel : No
Format settings, GMC : No warppoints
Format settings, Matrix : Default (MPEG)
Codec ID : XVID
Codec ID/Hint : XviD
Duration : 1h 14mn
Bit rate : 1 507 Kbps
Width : 704 pixels
Height : 368 pixels
Display aspect ratio : 1.913
Frame rate : 25.000 fps
Color space : YUV
Chroma subsampling : 4:2:0
Bit depth : 8 bits
Scan type : Progressive
Bits/(Pixel*Frame) : 0.233
Stream size : 807 MiB (92%)
Writing library : XviD 1.2.1 (UTC 2008-12-04)
Audio
ID : 1
Format : MPEG Audio
Format version : Version 1
Format profile : Layer 3
Codec ID : 55
Codec ID/Hint : MP3
Duration : 1h 14mn
Bit rate mode : Constant
Bit rate : 128 Kbps
Channel(s) : 2 channels
Sampling rate : 48.0 KHz
Stream size : 68.6 MiB (8%)
Alignment : Aligned on interleaves
Interleave, duration : 40 ms (1.00 video frame)
Interleave, preload duration : 504 ms
Writing library : LAME3.98r
Encoding settings : -m s -V 4 -q 2 -lowpass 17 -b 128
Download / Скачать

Хотите скачать бесплатно? Зарегистрируйтесь на сайте (ссылка на регистрацию). Pirat.ca - самый быстрый торрент трекер в рунете!

Как скачивать  ·   Что такое торрент  ·   Рейтинг и ограничения

Voldemartop

Легенда

1547

Пост 08-Май-2014 21:02 (спустя 3 часа)

[Q] 

Благо Дарю!!!
Хороший фильм, достойные актеры!!!
Автору респект!!! Лови бочку

_________________


МОИ РАЗДАЧИ
[Профиль]  [ЛС] 

Пост 08-Май-2014 21:56 (спустя 54 минуты)

Топик был перенесен из форума Наше кино (Трюм) в форум Золотая коллекция
ara1205
 
Показать сообщения:    
Ответить на тему

Текущее время: Сегодня 15:38

Часовой пояс: GMT + 4



Вы не можете начинать темы
Вы не можете отвечать на сообщения
Вы не можете редактировать свои сообщения
Вы не можете удалять свои сообщения
Вы не можете голосовать в опросах
Вы не можете прикреплять файлы к сообщениям
Вы не можете скачивать файлы

▼ Вниз