ML
     
  Уважаемый Гость!
Вы можете поддержать проект и зарегистрироваться у наших партнеров - онлайн-стратегия MyLands. При регистрации в игре Вы получите код, который сможете активировать после регистрации на pirat.ca и получить 1000 дублонов.

Ваш код:
9cfe162481db953a6549f32179d7b3900b8b8643
 
     

Командир счастливой "Щуки" (Борис Волчек) [1972 г., военный, DVDRip]

Ответить на тему
 
Автор
Сообщение

Пост 09-Май-2014 14:30

[Q] 

Мархуз

-Командир счастливой "Щуки"-- Производство: СССР, «Мосфильм»
Режиссер: Борис Волчек
Жанр: военный
Год выпуска: 1972 г.
Продолжительность: 01:35:25
В ролях: Пётр Вельяминов, Михаил Волков , Елена Добронравова, Евгений Евстигнеев, Константин Райкин, Светлана Суховей, Владимир Кашпур , Валентина Березуцкая, Василий Куприянов, Владимир Иванов , Донатас Банионис, Александр Борисов, Станислав Бородокин, Никита Астахов, Павел Махотин, Николай Тимофеев-Описание: В 1942 году, когда немцы готовились к захвату Мурманска, советское командование решило активизировать деятельность Северного флота. Фильм рассказывает об одной из подводных лодок, взявших на себя задачу по уничтожению вражеского транспорта с солдатами и боеприпасами.-Качество видео: DVDRip
Контейнер: AVI
Видео кодек: DivX
Аудио кодек: MP3
Видео: 640x384; 888 kbps 25 fps; 0.145 bit/pixel
Аудио: 128 kbps; 2 ch; 48 kHz
Cубтитры: отсутствуют
General
Complete name : E:\Torrent\Komandir_schasrlivoy_schuki_[Pirat.ca].torrent.avi
Format : AVI
Format/Info : Audio Video Interleave
File size : 700 MiB
Duration : 1h 35mn
Overall bit rate : 1 026 Kbps
Writing application : VirtualDubMod 1.5.10.2 (build 2540/release)
Writing library : VirtualDubMod build 2540/release
Video
ID : 0
Format : MPEG-4 Visual
Format settings, BVOP : 1
Format settings, QPel : No
Format settings, GMC : No warppoints
Format settings, Matrix : Default (H.263)
Muxing mode : Packed bitstream
Codec ID : DX50
Codec ID/Hint : DivX 5
Duration : 1h 35mn
Bit rate : 888 Kbps
Width : 640 pixels
Height : 384 pixels
Display aspect ratio : 1.667
Frame rate : 25.000 fps
Color space : YUV
Chroma subsampling : 4:2:0
Bit depth : 8 bits
Scan type : Progressive
Compression mode : Lossy
Bits/(Pixel*Frame) : 0.145
Stream size : 606 MiB (87%)
Writing library : DivX 6.8.5 (UTC 2009-08-20)
Audio
ID : 1
Format : MPEG Audio
Format version : Version 1
Format profile : Layer 3
Mode : Joint stereo
Mode extension : MS Stereo
Codec ID : 55
Codec ID/Hint : MP3
Duration : 1h 35mn
Bit rate mode : Constant
Bit rate : 128 Kbps
Channel(s) : 2 channels
Sampling rate : 48.0 KHz
Compression mode : Lossy
Stream size : 87.4 MiB (12%)
Alignment : Aligned on interleaves
Interleave, duration : 40 ms (1.00 video frame)
Interleave, preload duration : 504 ms
Раздача с 14.00 до 2.30 (время московское)
Download / Скачать

Хотите скачать бесплатно? Зарегистрируйтесь на сайте (ссылка на регистрацию). Pirat.ca - самый быстрый торрент трекер в рунете!

Как скачивать  ·   Что такое торрент  ·   Рейтинг и ограничения

Пост 09-Май-2014 16:34 (спустя 2 часа 4 минуты)

Топик был перенесен из форума Наше кино (Трюм) в форум Золотая коллекция
kugesan
 
Показать сообщения:    
Ответить на тему

Текущее время: Сегодня 06:05

Часовой пояс: GMT + 4



Вы не можете начинать темы
Вы не можете отвечать на сообщения
Вы не можете редактировать свои сообщения
Вы не можете удалять свои сообщения
Вы не можете голосовать в опросах
Вы не можете прикреплять файлы к сообщениям
Вы не можете скачивать файлы

▼ Вниз