ML
     
  Уважаемый Гость!
Вы можете поддержать проект и зарегистрироваться у наших партнеров - онлайн-стратегия MyLands. При регистрации в игре Вы получите код, который сможете активировать после регистрации на pirat.ca и получить 1000 дублонов.

Ваш код:
6f9ab67d502902cc72a06c406977ddb589b7f39d
 
     

Чапаев (Георгий Васильев, Сергей Васильев) [1934 г., военный, биография, DVDRip]

Ответить на тему
 
Автор
Сообщение

Пост 03-Июн-2014 12:12

[Q] 

Мархуз

-Чапаев-- Производство: СССР, Ленфильм
Режиссер: Георгий Васильев, Сергей Васильев
Жанр: военный, биография
Год выпуска: 1934 г.
Продолжительность: 01:30:31
В ролях: Борис Бабочкин, Борис Блинов, Варвара Мясникова, Леонид Кмит, Илларион Певцов, Степан Шкурат, Вячеслав Волков, Николай Симонов, Елена Волынцева, Борис Чирков, Сергей Васильев, Георгий Жжёнов, Михаил Ростовцев, Андрей Апсолон, Степан Крылов, Георгий Васильев, Михаил Гипси, Виктор Яблонский, Эмиль Галь, Константин Назаренко, Павел Лешков-Описание: Фильм о легендарном герое гражданской войны Василии Ивановиче Чапаеве. Федора Клычкова по приказу партии большевиков направляют комиссаром в 25-ю дивизию Красной армии под командованием Чапаева. Клычков приходит вместе с отрядом рабочих-ткачей. Чапаев поразил Клычкова своим обыкновенным видом - человек среднего роста, видимо, небольшой физической силы, но обладающий способностью приковывать к себе внимание окружающих. В Чапаеве чувствуется внутренняя сила, объединяющая вокруг него людей. Клычков понимает, как много в Чапаеве стихийного, неудержимого, и видит свою роль в том, чтобы в дальнейшем оказывать на истинно народного командира идейное влияние...-Качество видео: DVDRip
Контейнер: AVI
Видео кодек: XviD
Аудио кодек: AC3
Видео: 720x544; 2391 kbps; 25 fps; 0.244 bit/pixel
Аудио 1: 448 kbps; 1 ch; 48 kHz
Аудио 2: 448 kbps; 6 ch; 48 kHz
Cубтитры: отсутствуют
Первая премия «Серебряный кубок» 1-го Московского международного кинофестиваля в 1935 году.
«Лучший фильм на иностранном языке» по версии Национального совета кинокритиков США (National Board of Review) в 1935 году.
Гран-при Парижской Всемирной выставки в 1937 году.
Сталинская премия I степени в 1941 году. Лауреаты премии: Г. Васильев, С. Васильев, Б. Бабочкин.
Бронзовая медаль на кинофестивале в Венеции в 1946 году.
Золотая медаль на третьем смотре фильмов «Лидо дельи естензи», посвящённого «Борьбе народов за свободу и независимость» в честь 100-летия объединения Италии.
General
Complete name : E:\Torrent\Chapaev_[Pirat.ca].torrent.avi
Format : AVI
Format/Info : Audio Video Interleave
Format profile : OpenDML
File size : 2.09 GiB
Duration : 1h 30mn
Overall bit rate : 3 306 Kbps
Writing application : VirtualDubMod 1.5.10.3 | www.virtualdub-fr.org || (build 2550/release)
Writing library : VirtualDubMod build 2550/release
Video
ID : 0
Format : MPEG-4 Visual
Format profile : Advanced [email protected]
Format settings, BVOP : 2
Format settings, QPel : No
Format settings, GMC : No warppoints
Format settings, Matrix : Custom
Codec ID : XVID
Codec ID/Hint : XviD
Duration : 1h 30mn
Bit rate : 2 391 Kbps
Width : 720 pixels
Height : 544 pixels
Display aspect ratio : 4:3
Frame rate : 25.000 fps
Color space : YUV
Chroma subsampling : 4:2:0
Bit depth : 8 bits
Scan type : Progressive
Compression mode : Lossy
Bits/(Pixel*Frame) : 0.244
Stream size : 1.51 GiB (72%)
Writing library : XviD 73
Audio #1
ID : 1
Format : AC-3
Format/Info : Audio Coding 3
Mode extension : CM (complete main)
Format settings, Endianness : Big
Codec ID : 2000
Duration : 1h 30mn
Bit rate mode : Constant
Bit rate : 448 Kbps
Channel(s) : 1 channel
Channel positions : Front: C
Sampling rate : 48.0 KHz
Bit depth : 16 bits
Compression mode : Lossy
Stream size : 290 MiB (14%)
Alignment : Split accross interleaves
Interleave, duration : 40 ms (1.00 video frame)
Interleave, preload duration : 500 ms
Audio #2
ID : 2
Format : AC-3
Format/Info : Audio Coding 3
Mode extension : CM (complete main)
Format settings, Endianness : Big
Codec ID : 2000
Duration : 1h 30mn
Bit rate mode : Constant
Bit rate : 448 Kbps
Channel(s) : 6 channels
Channel positions : Front: L C R, Side: L R, LFE
Sampling rate : 48.0 KHz
Bit depth : 16 bits
Compression mode : Lossy
Stream size : 290 MiB (14%)
Alignment : Split accross interleaves
Interleave, duration : 40 ms (1.00 video frame)
Interleave, preload duration : 500 ms
Раздача с 14.00 до 2.30 (время московское)
Download / Скачать

Хотите скачать бесплатно? Зарегистрируйтесь на сайте (ссылка на регистрацию). Pirat.ca - самый быстрый торрент трекер в рунете!

Как скачивать  ·   Что такое торрент  ·   Рейтинг и ограничения

Пост 03-Июн-2014 13:46 (спустя 1 час 33 минуты)

Топик был перенесен из форума Наше кино (Трюм) в форум Золотая коллекция
ara1205
 

kmv01

Гроза морей

Пост 03-Июн-2014 14:49 (спустя 2 часа 37 минут)

[Q] 

Давненько не пересматривал!
[Профиль]  [ЛС] 

Мархуз ®

4505

Пост 03-Июн-2014 18:31 (спустя 3 часа)

[Q] 

kmv01, теперь у тебя есть возможность это сделать.

_________________

Счастье для всех, даром, и пусть никто не уйдёт обиженный
[Профиль]  [ЛС] 

Alien2000

Легенда

Пост 04-Июн-2014 00:10 (спустя 5 часов)

[Q] 

Раздающему респект!
[Профиль]  [ЛС] 
Показать сообщения:    
Ответить на тему

Текущее время: Сегодня 16:30

Часовой пояс: GMT + 4



Вы не можете начинать темы
Вы не можете отвечать на сообщения
Вы не можете редактировать свои сообщения
Вы не можете удалять свои сообщения
Вы не можете голосовать в опросах
Вы не можете прикреплять файлы к сообщениям
Вы не можете скачивать файлы

▼ Вниз