ML
     
  Уважаемый Гость!
Вы можете поддержать проект и зарегистрироваться у наших партнеров - онлайн-стратегия MyLands. При регистрации в игре Вы получите код, который сможете активировать после регистрации на pirat.ca и получить 1000 дублонов.

Ваш код:
ba41f7961e0b4717aed6a401d955262223b8f6c4
 
     

Коммунист (Юлий Райзман) [1957 г., драма, DVDRip]

Ответить на тему
 
Автор
Сообщение

Пост 13-Сен-2014 12:27

[Q] 

Мархуз

-Коммунист-- Производство: СССР, Мосфильм
Режиссер: Юлий Райзман
Жанр: драма
Год выпуска: 1957 г.
Продолжительность: 01:45:03
В ролях: Евгений Урбанский, Софья Павлова, Борис Смирнов, Евгений Шутов, Сергей Яковлев, Валентин Зубков, Виктор Колпаков, Александр Смирнов, В. Адлеров, Иван Каширин, Михаил Сидоркин-Описание: О рядовом коммунисте Василии Губанове - одном из тех, кто строил первую советскую электростанцию, о его добросовестном и честном труде, о его короткой, но яркой жизни.-Качество видео: DVDRip
Контейнер: AVI
Видео кодек: DivX
Аудио кодек: AC3
Видео: 720x544; 1473 kbps; 25 fps; 0.15 bit/pixel
Аудио: 384 kbps; 2ch; 48 kHz
Cубтитры: отсутствуют
1958 - МКФ в Венеции. Почётный диплом.
1959 - ВКФ. Первая премия по разделу художественных фильмов.
1959 - ВКФ. Первая премия за лучшую режиссёрскую работу.
1959 - ВКФ. Первая премия за исполнение мужской роли.
General
Complete name : E:\Torrent\Kommunist_[Pirat.ca].torrent.avi
Format : AVI
Format/Info : Audio Video Interleave
File size : 1.37 GiB
Duration : 1h 45mn
Overall bit rate : 1 864 Kbps
Writing application : VirtualDubMod 1.5.4.1 (build 2178/release)
Writing library : VirtualDubMod build 2178/release
Video
ID : 0
Format : MPEG-4 Visual
Format settings, BVOP : 1
Format settings, QPel : No
Format settings, GMC : No warppoints
Format settings, Matrix : Default (H.263)
Muxing mode : Packed bitstream
Codec ID : DX50
Codec ID/Hint : DivX 5
Duration : 1h 45mn
Bit rate : 1 473 Kbps
Width : 720 pixels
Height : 544 pixels
Display aspect ratio : 4:3
Frame rate : 25.000 fps
Color space : YUV
Chroma subsampling : 4:2:0
Bit depth : 8 bits
Scan type : Progressive
Compression mode : Lossy
Bits/(Pixel*Frame) : 0.150
Stream size : 1.08 GiB (79%)
Writing library : DivX 6.8.0 (UTC 2007-12-04)
Audio
ID : 1
Format : AC-3
Format/Info : Audio Coding 3
Mode extension : CM (complete main)
Format settings, Endianness : Big
Codec ID : 2000
Duration : 1h 45mn
Bit rate mode : Constant
Bit rate : 384 Kbps
Channel(s) : 2 channels
Channel positions : Front: L R
Sampling rate : 48.0 KHz
Bit depth : 16 bits
Compression mode : Lossy
Stream size : 289 MiB (21%)
Alignment : Split accross interleaves
Interleave, duration : 96 ms (2.40 video frames)
Interleave, preload duration : 96 ms
Language : Russian
Раздача с 14.00 до 2.30 (время московское)
Download / Скачать

Хотите скачать бесплатно? Зарегистрируйтесь на сайте (ссылка на регистрацию). Pirat.ca - самый быстрый торрент трекер в рунете!

Как скачивать  ·   Что такое торрент  ·   Рейтинг и ограничения

Пост 13-Сен-2014 14:29 (спустя 2 часа 1 минута)

Топик был перенесен из форума Наше кино (Трюм) в форум Золотая коллекция
kugesan
 

Daar

Пост 13-Сен-2014 21:46 (спустя 9 часов)

[Q] 

Какое громкое название, и сразу пошлятина в голову лезет
На любителя
[Профиль]  [ЛС] 

Мархуз ®

4507

Пост 13-Сен-2014 23:51 (спустя 2 часа 4 минуты)

[Q] 

Daar, название в самый раз. это фильм своего времени и фильм хороший.

_________________

Счастье для всех, даром, и пусть никто не уйдёт обиженный
[Профиль]  [ЛС] 
Показать сообщения:    
Ответить на тему

Текущее время: Сегодня 14:44

Часовой пояс: GMT + 4



Вы не можете начинать темы
Вы не можете отвечать на сообщения
Вы не можете редактировать свои сообщения
Вы не можете удалять свои сообщения
Вы не можете голосовать в опросах
Вы не можете прикреплять файлы к сообщениям
Вы не можете скачивать файлы

▼ Вниз