ML
     
  Уважаемый Гость!
Вы можете поддержать проект и зарегистрироваться у наших партнеров - онлайн-стратегия MyLands. При регистрации в игре Вы получите код, который сможете активировать после регистрации на pirat.ca и получить 1000 дублонов.

Ваш код:
f612af22ea70acf5cbe90707ac5a076d215f8f7f
 
     

Мы из Кронштадта (Ефим Дзиган) [1936 г., история, военный, DVDRip]

Ответить на тему
 
Автор
Сообщение

Пост 15-Сен-2014 12:14

[Q] 

Мархуз

-Мы из Кронштадта-- Производство: СССР, Мосфильм
Режиссер: Ефим Дзиган
Жанр: история, военный
Год выпуска: 1936 г.
Продолжительность: 01:28:57
В ролях: Василий Зайчиков, Георгий Бушуев, Николай Ивакин, Олег Жаков, Раиса Есипова, Петр Кириллов, Петр Соболевский, Федор Селезнев, Э. Гунн, Миша Гуриненко, Николай Головин-Описание: О героической борьбе матросов Балтийского флота против формирований Юденича. Образы героев фильма навеяны подлинными матросскими и красноармейскими письмами, а также старыми военными песнями.-Качество видео: DVDRip
Контейнер: AVI
Видео кодек: XviD
Аудио кодек: MP3
Видео: 528x400; 965 kbps; 25 fps; 0.183 bit/pixel
Аудио: 128 Kbps; 2 ch; 48 kHz
Cубтитры: отсутствуют
General
Complete name : E:\Torrent\Mi_iz_Kronshtadta_[Pirat.ca].torrent.avi
Format : AVI
Format/Info : Audio Video Interleave
File size : 700 MiB
Duration : 1h 28mn
Overall bit rate : 1 100 Kbps
Writing application : VirtualDubMod 1.5.4.1 (build 2178/release)
Writing library : VirtualDubMod build 2178/release
Video
ID : 0
Format : MPEG-4 Visual
Format profile : Advanced [email protected]
Format settings, BVOP : 1
Format settings, QPel : No
Format settings, GMC : No warppoints
Format settings, Matrix : Custom
Codec ID : XVID
Codec ID/Hint : XviD
Duration : 1h 28mn
Bit rate : 965 Kbps
Width : 528 pixels
Height : 400 pixels
Display aspect ratio : 4:3
Frame rate : 25.000 fps
Color space : YUV
Chroma subsampling : 4:2:0
Bit depth : 8 bits
Scan type : Progressive
Compression mode : Lossy
Bits/(Pixel*Frame) : 0.183
Stream size : 614 MiB (88%)
Writing library : XviD 1.2.1 (UTC 2008-12-04)
Audio
ID : 1
Format : MPEG Audio
Format version : Version 1
Format profile : Layer 3
Mode : Joint stereo
Mode extension : MS Stereo
Codec ID : 55
Codec ID/Hint : MP3
Duration : 1h 28mn
Bit rate mode : Constant
Bit rate : 128 Kbps
Channel(s) : 2 channels
Sampling rate : 48.0 KHz
Compression mode : Lossy
Stream size : 81.4 MiB (12%)
Alignment : Aligned on interleaves
Interleave, duration : 80 ms (2.00 video frames)
Interleave, preload duration : 504 ms
Writing library : LAME3.98r
Encoding settings : -m j -V 4 -q 2 -lowpass 17 -b 128
Раздача с 14.00 до 2.30 (время московское)
Download / Скачать

Хотите скачать бесплатно? Зарегистрируйтесь на сайте (ссылка на регистрацию). Pirat.ca - самый быстрый торрент трекер в рунете!

Как скачивать  ·   Что такое торрент  ·   Рейтинг и ограничения

Пост 15-Сен-2014 12:45 (спустя 30 минут)

Топик был перенесен из форума Наше кино (Трюм) в форум Золотая коллекция
ara1205
 

Vintorezov REG 39

Легенда

176

Пост 15-Сен-2014 19:18 (спустя 7 часов)

[Q] 

Ух ты вот это фильмец раритет cy
[Профиль]  [ЛС] 

gastello131

Флибустьер

159

Пост 15-Сен-2014 19:19 (спустя 1 минута)

[Q] 

Спасибо!!!
[Профиль]  [ЛС] 

ГИППАРРД

Морской Волк

2

Пост 15-Сен-2014 19:27 (спустя 7 минут)

[Q] 

Фильм отстой да здравствует Озеров!!!
[Профиль]  [ЛС] 

Alien2000

Легенда

Пост 21-Сен-2014 22:25 (спустя 6 дней)

[Q] 

Фильм детства :-)
Спасибо!!!
[Профиль]  [ЛС] 
Показать сообщения:    
Ответить на тему

Текущее время: Сегодня 00:27

Часовой пояс: GMT + 4



Вы не можете начинать темы
Вы не можете отвечать на сообщения
Вы не можете редактировать свои сообщения
Вы не можете удалять свои сообщения
Вы не можете голосовать в опросах
Вы не можете прикреплять файлы к сообщениям
Вы не можете скачивать файлы

▼ Вниз